Index
# A B C D E F G H I J K L M N O P Q R S T U V W Y Z
Tags
Language
Tags

Featured TV Shows


Blindspotting S01E01

Posted By: Tavaz
1080p (FullHD) / WEBRip IMDb
Blindspotting S01E01

Blindspotting S01E01
WEBRip | MKV | 1920x1080 | English | H264 @ 9301 kbps | E-AC-3 @ 640 kbps | 34 min 10 s | 2.42 GiB
Subtitles: English
Genre: Comedy, Drama


Collin must make it through his final three days of probation for a chance at a new beginning. He and his troublemaking childhood best friend, Miles, work as movers, and when Collin witnesses a police shooting, the two men’s friendship is tested as they grapple with identity and their changed realities in the rapidly-gentrifying neighborhood they grew up in.

634bf316b9f102e8adeb4bdb91eb377f.mkv (2.4 GB)



General
Unique ID : 218878158240505398298734319624512932064 (0xA4AA6660AEF3C7095172AAEB62D908E0)
Complete name : ./634bf316b9f102e8adeb4bdb91eb377f.mkv
Format : Matroska
Format version : Version 4 / Version 2
File size : 2.42 GiB
Duration : 34 min 10 s
Overall bit rate : 10.1 Mb/s
Writing application : mkvmerge v49.0.0 ('Sick Of Losing Soulmates') 64-bit
Writing library : libebml v1.4.0 + libmatroska v1.6.1

Video
ID : 1
Format : AVC
Format/Info : Advanced Video Codec
Format profile : High@L4
Format settings : CABAC / 4 Ref Frames
Format settings, CABAC : Yes
Format settings, RefFrames : 4 frames
Codec ID : V_MPEG4/ISO/AVC
Duration : 34 min 10 s
Bit rate mode : Constant
Bit rate : 9 301 kb/s
Nominal bit rate : 10 000 kb/s
Width : 1 920 pixels
Height : 1 080 pixels
Display aspect ratio : 16:9
Frame rate mode : Constant
Frame rate : 23.976 (24000/1001) FPS
Color space : YUV
Chroma subsampling : 4:2:0
Bit depth : 8 bits
Scan type : Progressive
Bits/(Pixel*Frame) : 0.187
Stream size : 2.22 GiB (92%)
Default : Yes
Forced : No
Color range : Limited
Color primaries : BT.709
Transfer characteristics : BT.709
Matrix coefficients : BT.709

Audio
ID : 2
Format : E-AC-3
Format/Info : Enhanced Audio Coding 3
Format settings, Endianness : Big
Codec ID : A_EAC3
Duration : 34 min 10 s
Bit rate mode : Constant
Bit rate : 640 kb/s
Channel(s) : 6 channels
Channel positions : Front: L C R, Side: L R, LFE
Sampling rate : 48.0 kHz
Frame rate : 187.500 FPS (256 SPF)
Compression mode : Lossy
Delay relative to video : 16 ms
Stream size : 156 MiB (6%)
Language : English
Service kind : Complete Main
Default : Yes
Forced : No

Text
ID : 3
Format : UTF-8
Codec ID : S_TEXT/UTF8
Codec ID/Info : UTF-8 Plain Text
Title : English
Language : English
Default : No
Forced : No





Blindspotting S01E01


Blindspotting S01E01


Blindspotting S01E01


Blindspotting S01E01


Blindspotting S01E01

All episodes