Featured TV Shows


Finding Your Roots S04E01

Posted By: Tavaz
720p (HD) / WEB-DL IMDb
Finding Your Roots S04E01

Finding Your Roots S04E01
WEB-DL | MKV | 1280x720 | English | H264 @ 2460 kbps | E-AC-3 @ 224 kbps | 52 min 15 s | 1 004 MiB
Subtitles: English
Genre: Documentary

Noted Harvard scholar Henry Louis Gates, Jr. has been helping people discover long-lost relatives hidden for generations within the branches of their family trees. Professor Gates utilizes a team of genealogists to reconstruct the paper trail left behind by our ancestors and the world’s leading geneticists to decode our DNA and help us travel thousands of years into the past to discover the origins of our earliest forebears.

Finding.Your.Roots.S04E01.The.Impression.720p.AMZN.WEB-DL.DDP2.0.H.264-QOQ.mkv (1004.5 MB)



General
Unique ID : 78039061673559569904755610391617635962 (0x3AB5C6CD59B682948553801076B6867A)
Complete name : ./Finding.Your.Roots.S04E01.The.Impression.720p.AMZN.WEB-DL.DDP2.0.H.264-QOQ.mkv
Format : Matroska
Format version : Version 4 / Version 2
File size : 1 004 MiB
Duration : 52 min 15 s
Overall bit rate mode : Variable
Overall bit rate : 2 687 kb/s
Encoded date : UTC 2018-04-07 01:37:57
Writing application : mkvmerge v21.0.0 ('Tardigrades Will Inherit The Earth') 64-bit
Writing library : libebml v1.3.5 + libmatroska v1.4.8

Video
ID : 1
Format : AVC
Format/Info : Advanced Video Codec
Format profile : High@L3.1
Format settings : CABAC / 5 Ref Frames
Format settings, CABAC : Yes
Format settings, RefFrames : 5 frames
Codec ID : V_MPEG4/ISO/AVC
Duration : 52 min 15 s
Bit rate mode : Variable
Bit rate : 2 460 kb/s
Maximum bit rate : 4 500 kb/s
Width : 1 280 pixels
Height : 720 pixels
Display aspect ratio : 16:9
Frame rate mode : Constant
Frame rate : 29.970 (30000/1001) FPS
Color space : YUV
Chroma subsampling : 4:2:0
Bit depth : 8 bits
Scan type : Progressive
Bits/(Pixel*Frame) : 0.089
Stream size : 920 MiB (92%)
Default : Yes
Forced : No
Color range : Limited
Color primaries : BT.709
Transfer characteristics : BT.709
Matrix coefficients : BT.709

Audio
ID : 2
Format : E-AC-3
Format/Info : Enhanced Audio Coding 3
Format settings, Endianness : Big
Codec ID : A_EAC3
Duration : 52 min 15 s
Bit rate mode : Constant
Bit rate : 224 kb/s
Channel(s) : 2 channels
Channel positions : Front: L R
Sampling rate : 48.0 kHz
Frame rate : 187.500 FPS (256 SPF)
Compression mode : Lossy
Stream size : 83.7 MiB (8%)
Language : English
Service kind : Complete Main
Default : Yes
Forced : No

Text #1
ID : 3
Format : UTF-8
Codec ID : S_TEXT/UTF8
Codec ID/Info : UTF-8 Plain Text
Duration : 52 min 3 s
Bit rate : 122 b/s
Count of elements : 1204
Stream size : 46.6 KiB (0%)
Language : English
Default : No
Forced : No

Text #2
ID : 4
Format : UTF-8
Codec ID : S_TEXT/UTF8
Codec ID/Info : UTF-8 Plain Text
Duration : 52 min 3 s
Bit rate : 122 b/s
Count of elements : 1207
Stream size : 46.7 KiB (0%)
Title : SDH
Language : English
Default : No
Forced : No





Finding Your Roots S04E01


Finding Your Roots S04E01


Finding Your Roots S04E01


Finding Your Roots S04E01


Finding Your Roots S04E01

All episodes