Index
# A B C D E F G H I J K L M N O P Q R S T U V W Y Z
Tags
Language
Tags

Featured TV Shows


See - Reich der Blinden S07E11

Posted By: Tavaz
1080p (FullHD) / HDTV IMDb
See - Reich der Blinden S07E11

See - Reich der Blinden S07E11
WEB-DL | MKV | 1920x1080 | English / Deutsch | H264 @ 6817 kbps | AC-3 @ 192 kbps | 44 min 25 s | 2.24 GiB
Genre: Drama


Weit in einer dystopischen Zukunft hat die Menschheit den Blick verloren, und die Gesellschaft musste neue Wege finden, um zu interagieren, zu bauen, zu jagen und zu überleben. All das wird herausgefordert, alsn eine Gruppe von Zwillingen mit Sehkraft geboren wird.

156f2ea347a761c02ac6777829dea667.mkv (2.2 GB)



General
Unique ID : 242837723942602089709733414022226966133 (0xB6B0D82BB2E0A19BAC11BDD2E3B4F675)
Complete name : ./156f2ea347a761c02ac6777829dea667.mkv
Format : Matroska
Format version : Version 2
File size : 2.24 GiB
Duration : 44 min 25 s
Overall bit rate : 7 204 kb/s
Encoded date : UTC 2021-08-26 21:39:43
Writing application : mkvmerge v31.0.0 ('Dolores In A Shoestand') 64-bit
Writing library : libebml v1.3.6 + libmatroska v1.4.9

Video
ID : 1
Format : AVC
Format/Info : Advanced Video Codec
Format profile : High@L4.1
Format settings : CABAC / 4 Ref Frames
Format settings, CABAC : Yes
Format settings, RefFrames : 4 frames
Codec ID : V_MPEG4/ISO/AVC
Duration : 44 min 25 s
Bit rate : 6 818 kb/s
Width : 1 920 pixels
Height : 1 080 pixels
Display aspect ratio : 16:9
Frame rate mode : Constant
Frame rate : 25.000 FPS
Color space : YUV
Chroma subsampling : 4:2:0
Bit depth : 8 bits
Scan type : Progressive
Bits/(Pixel*Frame) : 0.132
Stream size : 2.12 GiB (95%)
Writing library : x264 core 164 r3065 ae03d92
Encoding settings : cabac=1 / ref=4 / deblock=1:-3:-3 / analyse=0x3:0x113 / me=umh / subme=7 / psy=1 / psy_rd=1.00:0.00 / mixed_ref=1 / me_range=16 / chroma_me=1 / trellis=1 / 8x8dct=1 / cqm=0 / deadzone=21,11 / fast_pskip=0 / chroma_qp_offset=-2 / threads=24 / lookahead_threads=4 / sliced_threads=0 / nr=0 / decimate=1 / interlaced=0 / bluray_compat=0 / constrained_intra=0 / bframes=3 / b_pyramid=2 / b_adapt=1 / b_bias=0 / direct=1 / weightb=1 / open_gop=0 / weightp=2 / keyint=250 / keyint_min=25 / scenecut=40 / intra_refresh=0 / rc_lookahead=40 / rc=crf / mbtree=1 / crf=20.0 / qcomp=0.60 / qpmin=0 / qpmax=69 / qpstep=4 / ip_ratio=1.40 / aq=1:1.00
Default : Yes
Forced : No

Audio #1
ID : 2
Format : AC-3
Format/Info : Audio Coding 3
Format settings, Endianness : Big
Codec ID : A_AC3
Duration : 44 min 25 s
Bit rate mode : Constant
Bit rate : 192 kb/s
Channel(s) : 2 channels
Channel positions : Front: L R
Sampling rate : 48.0 kHz
Frame rate : 31.250 FPS (1536 SPF)
Bit depth : 16 bits
Compression mode : Lossy
Stream size : 61.0 MiB (3%)
Language : German
Service kind : Complete Main
Default : Yes
Forced : No

Audio #2
ID : 3
Format : AC-3
Format/Info : Audio Coding 3
Format settings, Endianness : Big
Codec ID : A_AC3
Duration : 44 min 25 s
Bit rate mode : Constant
Bit rate : 192 kb/s
Channel(s) : 2 channels
Channel positions : Front: L R
Sampling rate : 48.0 kHz
Frame rate : 31.250 FPS (1536 SPF)
Bit depth : 16 bits
Compression mode : Lossy
Stream size : 61.0 MiB (3%)
Language : English
Service kind : Complete Main
Default : No
Forced : No





See - Reich der Blinden S07E11


See - Reich der Blinden S07E11


See - Reich der Blinden S07E11


See - Reich der Blinden S07E11


See - Reich der Blinden S07E11

All episodes