Featured TV Shows


Good Girls S01E02

Posted By: Tavaz
SD / WEB-DL IMDb
Good Girls S01E02

Good Girls S01E02
WEB-DL | MKV | 720x404 | Italian | H264 @ 883 kbps | AAC @ 109 kbps | 41 min 13 s | 293 MiB
Subtitles: Italian
Genre: Comedy, Drama

Three "good girl" suburban wives and mothers suddenly find themselves in desperate circumstances and decide to stop playing it safe and risk everything to take their power back.

Good.Girls.1x02.I.Soldi.Portano.Guai.ITA.WEBMux.x264-NovaRip.mkv (293.4 MB)



General
Unique ID : 188448228518419636198098252983123436750 (0x8DC5CF022E6F4B28FF9F0126CD09E4CE)
Complete name : ./Good.Girls.1x02.I.Soldi.Portano.Guai.ITA.WEBMux.x264-NovaRip.mkv
Format : Matroska
Format version : Version 2
File size : 293 MiB
Duration : 41 min 13 s
Overall bit rate : 995 kb/s
Encoded date : UTC 2018-07-08 07:40:10
Writing application : mkvmerge v8.5.2 ('Crosses') 64bit
Writing library : libebml v1.3.3 + libmatroska v1.4.4

Video
ID : 1
Format : AVC
Format/Info : Advanced Video Codec
Format profile : High@L3.1
Format settings : CABAC / 6 Ref Frames
Format settings, CABAC : Yes
Format settings, RefFrames : 6 frames
Codec ID : V_MPEG4/ISO/AVC
Duration : 41 min 12 s
Bit rate : 883 kb/s
Width : 720 pixels
Height : 404 pixels
Display aspect ratio : 16:9
Frame rate mode : Constant
Frame rate : 23.976 (24000/1001) FPS
Color space : YUV
Chroma subsampling : 4:2:0
Bit depth : 8 bits
Scan type : Progressive
Bits/(Pixel*Frame) : 0.127
Stream size : 260 MiB (89%)
Writing library : x264 core 155 r2893 b00bcaf
Encoding settings : cabac=1 / ref=6 / deblock=1:-2:-2 / analyse=0x3:0x133 / me=umh / subme=7 / psy=1 / psy_rd=1.00:0.00 / mixed_ref=1 / me_range=16 / chroma_me=1 / trellis=2 / 8x8dct=1 / cqm=0 / deadzone=21,11 / fast_pskip=0 / chroma_qp_offset=-2 / threads=6 / lookahead_threads=1 / sliced_threads=0 / nr=0 / decimate=1 / interlaced=0 / bluray_compat=0 / constrained_intra=0 / bframes=5 / b_pyramid=2 / b_adapt=2 / b_bias=0 / direct=3 / weightb=1 / open_gop=0 / weightp=2 / keyint=250 / keyint_min=23 / scenecut=40 / intra_refresh=0 / rc_lookahead=40 / rc=crf / mbtree=1 / crf=19.0 / qcomp=0.60 / qpmin=0 / qpmax=69 / qpstep=4 / ip_ratio=1.40 / aq=1:1.00
Language : English
Default : Yes
Forced : Yes

Audio
ID : 2
Format : AAC
Format/Info : Advanced Audio Codec
Format profile : LC
Codec ID : A_AAC-2
Duration : 41 min 13 s
Bit rate : 110 kb/s
Channel(s) : 2 channels
Channel positions : Front: L R
Sampling rate : 48.0 kHz
Frame rate : 46.875 FPS (1024 SPF)
Compression mode : Lossy
Delay relative to video : 9 ms
Stream size : 32.3 MiB (11%)
Title : ITA
Language : Italian
Default : Yes
Forced : Yes

Text
ID : 3
Format : UTF-8
Codec ID : S_TEXT/UTF8
Codec ID/Info : UTF-8 Plain Text
Duration : 39 min 55 s
Bit rate : 0 b/s
Count of elements : 5
Stream size : 183 Bytes (0%)
Title : ITA - Forced
Language : Italian
Default : Yes
Forced : Yes





Good Girls S01E02


Good Girls S01E02


Good Girls S01E02


Good Girls S01E02


Good Girls S01E02

All episodes