Featured TV Shows


Star S16E11

Posted By: Tavaz
SD / WEBRip IMDb
Star S16E11

Star S16E11
WEBRip | MKV | 720x404 | English | H264 @ 1706 kbps | AAC @ 127 kbps | 42 min 8 s | 553 MiB
Genre: Drama

Star is a tough-as-nails young woman who came up in the foster care system and decides one day to take control of her destiny. She tracks down her sister, Simone, and her Instagram bestie, Alexandra, and together, the trio journeys to Atlanta with the hope of becoming music superstars.

sample-guys.grocery.games.s16e11.five-star.showdown.webrip.x264-caffeine.mkv (20.4 MB)
Guys.Grocery.Games.S16E11.Five-Star.Showdown.WEBRip.x264-CAFFEiNE.mkv (553.4 MB)



General
Unique ID : 199747994839916804245719501569460137531 (0x96461080687164B011BB6746D435EE3B)
Complete name : ./Guys.Grocery.Games.S16E11.Five-Star.Showdown.WEBRip.x264-CAFFEiNE.mkv
Format : Matroska
Format version : Version 4 / Version 2
File size : 553 MiB
Duration : 42 min 8 s
Overall bit rate : 1 836 kb/s
Encoded date : UTC 2018-05-22 01:40:22
Writing application : mkvmerge v23.0.0 ('The Bride Said No') 64-bit
Writing library : libebml v1.3.6 + libmatroska v1.4.9

Video
ID : 2
Format : AVC
Format/Info : Advanced Video Codec
Format profile : High@L3.1
Format settings : CABAC / 4 Ref Frames
Format settings, CABAC : Yes
Format settings, RefFrames : 4 frames
Codec ID : V_MPEG4/ISO/AVC
Duration : 42 min 8 s
Bit rate : 1 706 kb/s
Width : 720 pixels
Height : 404 pixels
Display aspect ratio : 16:9
Frame rate mode : Constant
Frame rate : 23.976 (23976/1000) FPS
Color space : YUV
Chroma subsampling : 4:2:0
Bit depth : 8 bits
Scan type : Progressive
Bits/(Pixel*Frame) : 0.245
Stream size : 514 MiB (93%)
Writing library : x264 core 155 r2901 7d0ff22
Encoding settings : cabac=1 / ref=4 / deblock=1:-3:-3 / analyse=0x3:0x113 / me=hex / subme=8 / psy=1 / psy_rd=1.00:0.00 / mixed_ref=1 / me_range=16 / chroma_me=1 / trellis=2 / 8x8dct=1 / cqm=0 / deadzone=21,11 / fast_pskip=1 / chroma_qp_offset=-2 / threads=34 / lookahead_threads=3 / sliced_threads=0 / nr=0 / decimate=1 / interlaced=0 / bluray_compat=0 / constrained_intra=0 / bframes=3 / b_pyramid=2 / b_adapt=2 / b_bias=0 / direct=3 / weightb=1 / open_gop=0 / weightp=2 / keyint=250 / keyint_min=25 / scenecut=40 / intra_refresh=0 / rc_lookahead=50 / rc=crf / mbtree=1 / crf=19.0 / qcomp=0.60 / qpmin=0 / qpmax=69 / qpstep=4 / ip_ratio=1.40 / aq=1:1.00
Language : English
Default : Yes
Forced : No
Color range : Limited
Matrix coefficients : BT.709

Audio
ID : 1
Format : AAC
Format/Info : Advanced Audio Codec
Format profile : LC
Codec ID : A_AAC-2
Duration : 42 min 8 s
Bit rate : 128 kb/s
Channel(s) : 2 channels
Channel positions : Front: L R
Sampling rate : 44.1 kHz
Frame rate : 43.066 FPS (1024 SPF)
Compression mode : Lossy
Stream size : 38.5 MiB (7%)
Language : English
Default : Yes
Forced : No





Star S16E11


Star S16E11


Star S16E11


Star S16E11


Star S16E11

All episodes