Featured TV Shows


ATLANTA S04E01

Posted By: Tavaz
1080p (FullHD) / WEB-DL IMDb
ATLANTA S04E01

ATLANTA S04E01
WEB-DL | MKV | 1920x1080 | English | H264 @ 5927 kbps | AAC @ 63 kbps | 39 min 46 s | 1.67 GiB
Subtitles: English
Genre: Commedia

Una comedy insolita, dark, strana, ambientata nella scena rap di Atlanta. Ce la farà Earl, il protagonista, a diventare il manager di suo cugino Alfred? E, una volta riuscitoci, riuscirà a farlo ragionare e farlo diventare una vera star? Il tutto con un twist di stranezze alla Twin Peaks. Un successo di pubblico e di critica, tanto che FX ha già rinnovato Atlanta per una seconda stagione.

Little.Women.Atlanta.S04E01.Rumor.Has.It.1080p.Hulu.WEB-DL.AAC2.0.H.264-QOQ.mkv (1.7 GB)



General
Unique ID : 245585610255749614481641456645738108841 (0xB8C2116D0CB814E6D66975CECFAC97A9)
Complete name : ./Little.Women.Atlanta.S04E01.Rumor.Has.It.1080p.Hulu.WEB-DL.AAC2.0.H.264-QOQ.mkv
Format : Matroska
Format version : Version 4 / Version 2
File size : 1.67 GiB
Duration : 39 min 46 s
Overall bit rate : 5 994 kb/s
Encoded date : UTC 2018-10-12 09:59:37
Writing application : mkvmerge v20.0.0 ('I Am The Sun') 32-bit
Writing library : libebml v1.3.5 + libmatroska v1.4.8

Video
ID : 1
Format : AVC
Format/Info : Advanced Video Codec
Format profile : High@L4
Format settings : CABAC / 4 Ref Frames
Format settings, CABAC : Yes
Format settings, RefFrames : 4 frames
Codec ID : V_MPEG4/ISO/AVC
Duration : 39 min 46 s
Bit rate : 5 928 kb/s
Width : 1 920 pixels
Height : 1 080 pixels
Display aspect ratio : 16:9
Frame rate mode : Constant
Frame rate : 23.976 (24000/1001) FPS
Color space : YUV
Chroma subsampling : 4:2:0
Bit depth : 8 bits
Scan type : Progressive
Bits/(Pixel*Frame) : 0.119
Stream size : 1.65 GiB (99%)
Default : Yes
Forced : No

Audio
ID : 2
Format : AAC
Format/Info : Advanced Audio Codec
Format profile : HE-AAC / LC
Format settings : Explicit
Codec ID : A_AAC-2
Duration : 39 min 46 s
Bit rate : 64.0 kb/s
Channel(s) : 2 channels
Channel positions : Front: L R
Sampling rate : 48.0 kHz / 24.0 kHz
Frame rate : 23.438 FPS (1024 SPF)
Compression mode : Lossy
Stream size : 18.2 MiB (1%)
Default : Yes
Forced : No

Text
ID : 3
Format : UTF-8
Codec ID : S_TEXT/UTF8
Codec ID/Info : UTF-8 Plain Text
Duration : 39 min 44 s
Bit rate : 131 b/s
Count of elements : 1032
Stream size : 38.2 KiB (0%)
Language : English
Default : No
Forced : No





ATLANTA S04E01


ATLANTA S04E01


ATLANTA S04E01


ATLANTA S04E01


ATLANTA S04E01

All episodes