Featured TV Shows


Atlanta S04E13

Posted By: Tavaz
1080p (FullHD) / WEB-DL IMDb
Atlanta S04E13

Atlanta S04E13
WEB-DL | MKV | 1920x1080 | English | H264 @ 5925 kbps | AAC @ 64 kbps | 40 min 42 s | 1.70 GiB
Subtitles: English
Genre: Comedy

Two cousins, with different views on art versus commerce, on their way up through the Atlanta rap scene; Earnest 'Earn' Marks, an ambitious college dropout and his estranged cousin, who suddenly becomes a star.

9477089e58ba477bbb966f26d2de6b36.mkv (1.7 GB)



General
Unique ID : 109906988324927711514485148220173293274 (0x52AF50E4CD482A5C5B8B89D262FF96DA)
Complete name : ./9477089e58ba477bbb966f26d2de6b36.mkv
Format : Matroska
Format version : Version 4 / Version 2
File size : 1.70 GiB
Duration : 40 min 42 s
Overall bit rate : 5 992 kb/s
Encoded date : UTC 2018-10-12 11:46:46
Writing application : mkvmerge v20.0.0 ('I Am The Sun') 32-bit
Writing library : libebml v1.3.5 + libmatroska v1.4.8

Video
ID : 1
Format : AVC
Format/Info : Advanced Video Codec
Format profile : High@L4
Format settings : CABAC / 4 Ref Frames
Format settings, CABAC : Yes
Format settings, RefFrames : 4 frames
Codec ID : V_MPEG4/ISO/AVC
Duration : 40 min 42 s
Bit rate : 5 925 kb/s
Width : 1 920 pixels
Height : 1 080 pixels
Display aspect ratio : 16:9
Frame rate mode : Constant
Frame rate : 23.976 (24000/1001) FPS
Color space : YUV
Chroma subsampling : 4:2:0
Bit depth : 8 bits
Scan type : Progressive
Bits/(Pixel*Frame) : 0.119
Stream size : 1.69 GiB (99%)
Default : Yes
Forced : No

Audio
ID : 2
Format : AAC
Format/Info : Advanced Audio Codec
Format profile : HE-AAC / LC
Format settings : Explicit
Codec ID : A_AAC-2
Duration : 40 min 42 s
Bit rate : 64.0 kb/s
Channel(s) : 2 channels
Channel positions : Front: L R
Sampling rate : 48.0 kHz / 24.0 kHz
Frame rate : 23.438 FPS (1024 SPF)
Compression mode : Lossy
Stream size : 18.6 MiB (1%)
Default : Yes
Forced : No

Text
ID : 3
Format : UTF-8
Codec ID : S_TEXT/UTF8
Codec ID/Info : UTF-8 Plain Text
Duration : 40 min 37 s
Bit rate : 118 b/s
Count of elements : 1013
Stream size : 35.3 KiB (0%)
Language : English
Default : No
Forced : No





Atlanta S04E13


Atlanta S04E13


Atlanta S04E13


Atlanta S04E13


Atlanta S04E13

All episodes