Maniac S01E04

Posted By: Tavaz
1080p (FullHD) / WEB-DL IMDb
Maniac S01E04

Maniac S01E04
WEB-DL | MKV | 1920x1080 | Norwegian | H264 @ 4640 kbps | E-AC-3 @ 640 kbps | 21 min 13 s | 798 MiB
Subtitles: Swedish, Danish, Bulgarian, Finnish, Norwegian Bokmal, English, Dutch
Genre: Comedy

A darkly comedic series revolving around the fantasy worlds of two patients in a mental institute. Based on the 2014 Norwegian series of the same name.

8d5a6ea5d4c74b7794f4fcbc43761ef1.mkv (798.4 MB)



General
Unique ID : 290525493978338470824584487368612082357 (0xDA912CC2B668F82EE4A229DFE37372B5)
Complete name : ./8d5a6ea5d4c74b7794f4fcbc43761ef1.mkv
Format : Matroska
Format version : Version 4 / Version 2
File size : 798 MiB
Duration : 21 min 13 s
Overall bit rate mode : Variable
Overall bit rate : 5 260 kb/s
Encoded date : UTC 2018-09-21 16:05:08
Writing application : mkvmerge v21.0.0 ('Tardigrades Will Inherit The Earth') 64-bit
Writing library : libebml v1.3.5 + libmatroska v1.4.8

Video
ID : 1
Format : AVC
Format/Info : Advanced Video Codec
Format profile : Main@L4
Format settings : CABAC / 3 Ref Frames
Format settings, CABAC : Yes
Format settings, RefFrames : 3 frames
Format settings, GOP : M=3, N=50
Codec ID : V_MPEG4/ISO/AVC
Duration : 21 min 12 s
Bit rate mode : Variable
Bit rate : 4 640 kb/s
Maximum bit rate : 6 960 kb/s
Width : 1 920 pixels
Height : 1 080 pixels
Display aspect ratio : 16:9
Frame rate mode : Constant
Frame rate : 25.000 FPS
Color space : YUV
Chroma subsampling : 4:2:0
Bit depth : 8 bits
Scan type : Progressive
Bits/(Pixel*Frame) : 0.090
Stream size : 701 MiB (88%)
Writing library : x264 core 118
Encoding settings : cabac=1 / ref=3 / deblock=1:0:0 / analyse=0x1:0x111 / me=umh / subme=10 / psy=1 / psy_rd=1.00:0.00 / mixed_ref=1 / me_range=24 / chroma_me=1 / trellis=2 / 8x8dct=0 / cqm=0 / deadzone=21,11 / fast_pskip=1 / chroma_qp_offset=-2 / threads=8 / sliced_threads=0 / nr=0 / decimate=1 / interlaced=0 / bluray_compat=0 / constrained_intra=0 / bframes=2 / b_pyramid=0 / b_adapt=2 / b_bias=0 / direct=3 / weightb=1 / open_gop=0 / weightp=2 / keyint=50 / keyint_min=26 / scenecut=0 / intra_refresh=0 / rc_lookahead=0 / rc=2pass / mbtree=1 / bitrate=4640 / ratetol=1.0 / qcomp=0.50 / qpmin=6 / qpmax=51 / qpstep=4 / cplxblur=20.0 / qblur=0.5 / vbv_maxrate=6960 / vbv_bufsize=9280 / nal_hrd=vbr / ip_ratio=1.40 / aq=1:1.00
Default : Yes
Forced : No

Audio
ID : 2
Format : E-AC-3
Format/Info : Enhanced Audio Coding 3
Format settings, Endianness : Big
Codec ID : A_EAC3
Duration : 21 min 13 s
Bit rate mode : Constant
Bit rate : 640 kb/s
Channel(s) : 6 channels
Channel positions : Front: L C R, Side: L R, LFE
Sampling rate : 48.0 kHz
Frame rate : 187.500 FPS (256 SPF)
Compression mode : Lossy
Stream size : 97.2 MiB (12%)
Title : Norwegian
Language : Norwegian
Service kind : Complete Main
Default : Yes
Forced : No

Text #1
ID : 3
Format : UTF-8
Codec ID : S_TEXT/UTF8
Codec ID/Info : UTF-8 Plain Text
Duration : 20 min 47 s
Bit rate : 52 b/s
Count of elements : 222
Stream size : 8.04 KiB (0%)
Language : English
Default : Yes
Forced : No

Text #2
ID : 4
Format : UTF-8
Codec ID : S_TEXT/UTF8
Codec ID/Info : UTF-8 Plain Text
Duration : 20 min 47 s
Bit rate : 93 b/s
Count of elements : 221
Stream size : 14.2 KiB (0%)
Language : Bulgarian
Default : No
Forced : No

Text #3
ID : 5
Format : UTF-8
Codec ID : S_TEXT/UTF8
Codec ID/Info : UTF-8 Plain Text
Duration : 20 min 48 s
Bit rate : 60 b/s
Count of elements : 230
Stream size : 9.23 KiB (0%)
Language : Danish
Default : No
Forced : No

Text #4
ID : 6
Format : UTF-8
Codec ID : S_TEXT/UTF8
Codec ID/Info : UTF-8 Plain Text
Duration : 20 min 48 s
Bit rate : 57 b/s
Count of elements : 235
Stream size : 8.73 KiB (0%)
Language : Finnish
Default : No
Forced : No

Text #5
ID : 7
Format : UTF-8
Codec ID : S_TEXT/UTF8
Codec ID/Info : UTF-8 Plain Text
Duration : 20 min 51 s
Bit rate : 68 b/s
Count of elements : 286
Stream size : 10.5 KiB (0%)
Title : SDH
Language : Norwegian Bokmal
Default : No
Forced : No

Text #6
ID : 8
Format : UTF-8
Codec ID : S_TEXT/UTF8
Codec ID/Info : UTF-8 Plain Text
Duration : 20 min 42 s
Bit rate : 56 b/s
Count of elements : 219
Stream size : 8.50 KiB (0%)
Language : Dutch
Default : No
Forced : No

Text #7
ID : 9
Format : UTF-8
Codec ID : S_TEXT/UTF8
Codec ID/Info : UTF-8 Plain Text
Duration : 20 min 48 s
Bit rate : 57 b/s
Count of elements : 232
Stream size : 8.70 KiB (0%)
Language : Swedish
Default : No
Forced : No





Maniac S01E04


Maniac S01E04


Maniac S01E04


Maniac S01E04


Maniac S01E04

All episodes