Maniac S01E06

Posted By: Tavaz
1080p (FullHD) / WEB-DL IMDb
Maniac S01E06

Maniac S01E06
WEB-DL | MKV | 1920x1080 | Norwegian | H264 @ 3830 kbps | E-AC-3 @ 640 kbps | 21 min 44 s | 693 MiB
Subtitles: Swedish, Danish, Bulgarian, Finnish, Norwegian Bokmal, English, Dutch
Genre: Comedy

A darkly comedic series revolving around the fantasy worlds of two patients in a mental institute. Based on the 2014 Norwegian series of the same name.

50e364f548dd44baa8f1f70946ebea38.mkv (693.4 MB)



General
Unique ID : 290080854910873443680500997594608536286 (0xDA3B8A5CAD2A3DC6C561E6D185778ADE)
Complete name : ./50e364f548dd44baa8f1f70946ebea38.mkv
Format : Matroska
Format version : Version 4 / Version 2
File size : 693 MiB
Duration : 21 min 44 s
Overall bit rate mode : Variable
Overall bit rate : 4 460 kb/s
Encoded date : UTC 2018-09-21 16:05:57
Writing application : mkvmerge v21.0.0 ('Tardigrades Will Inherit The Earth') 64-bit
Writing library : libebml v1.3.5 + libmatroska v1.4.8

Video
ID : 1
Format : AVC
Format/Info : Advanced Video Codec
Format profile : Main@L4
Format settings : CABAC / 3 Ref Frames
Format settings, CABAC : Yes
Format settings, RefFrames : 3 frames
Codec ID : V_MPEG4/ISO/AVC
Duration : 21 min 43 s
Bit rate mode : Variable
Bit rate : 3 830 kb/s
Maximum bit rate : 5 745 kb/s
Width : 1 920 pixels
Height : 1 080 pixels
Display aspect ratio : 16:9
Frame rate mode : Constant
Frame rate : 25.000 FPS
Color space : YUV
Chroma subsampling : 4:2:0
Bit depth : 8 bits
Scan type : Progressive
Bits/(Pixel*Frame) : 0.074
Stream size : 594 MiB (86%)
Writing library : x264 core 118
Encoding settings : cabac=1 / ref=3 / deblock=1:0:0 / analyse=0x1:0x111 / me=umh / subme=10 / psy=1 / psy_rd=1.00:0.00 / mixed_ref=1 / me_range=24 / chroma_me=1 / trellis=2 / 8x8dct=0 / cqm=0 / deadzone=21,11 / fast_pskip=1 / chroma_qp_offset=-2 / threads=6 / sliced_threads=0 / nr=0 / decimate=1 / interlaced=0 / bluray_compat=0 / constrained_intra=0 / bframes=2 / b_pyramid=0 / b_adapt=2 / b_bias=0 / direct=3 / weightb=1 / open_gop=0 / weightp=2 / keyint=50 / keyint_min=26 / scenecut=0 / intra_refresh=0 / rc_lookahead=0 / rc=2pass / mbtree=1 / bitrate=3830 / ratetol=1.0 / qcomp=0.50 / qpmin=6 / qpmax=51 / qpstep=4 / cplxblur=20.0 / qblur=0.5 / vbv_maxrate=5745 / vbv_bufsize=7660 / nal_hrd=vbr / ip_ratio=1.40 / aq=1:1.00
Default : Yes
Forced : No

Audio
ID : 2
Format : E-AC-3
Format/Info : Enhanced Audio Coding 3
Format settings, Endianness : Big
Codec ID : A_EAC3
Duration : 21 min 44 s
Bit rate mode : Constant
Bit rate : 640 kb/s
Channel(s) : 6 channels
Channel positions : Front: L C R, Side: L R, LFE
Sampling rate : 48.0 kHz
Frame rate : 187.500 FPS (256 SPF)
Compression mode : Lossy
Stream size : 99.5 MiB (14%)
Title : Norwegian
Language : Norwegian
Service kind : Complete Main
Default : Yes
Forced : No

Text #1
ID : 3
Format : UTF-8
Codec ID : S_TEXT/UTF8
Codec ID/Info : UTF-8 Plain Text
Duration : 21 min 22 s
Bit rate : 33 b/s
Count of elements : 151
Stream size : 5.28 KiB (0%)
Language : English
Default : Yes
Forced : No

Text #2
ID : 4
Format : UTF-8
Codec ID : S_TEXT/UTF8
Codec ID/Info : UTF-8 Plain Text
Duration : 21 min 22 s
Bit rate : 58 b/s
Count of elements : 150
Stream size : 9.14 KiB (0%)
Language : Bulgarian
Default : No
Forced : No

Text #3
ID : 5
Format : UTF-8
Codec ID : S_TEXT/UTF8
Codec ID/Info : UTF-8 Plain Text
Duration : 21 min 24 s
Bit rate : 37 b/s
Count of elements : 151
Stream size : 5.83 KiB (0%)
Language : Danish
Default : No
Forced : No

Text #4
ID : 6
Format : UTF-8
Codec ID : S_TEXT/UTF8
Codec ID/Info : UTF-8 Plain Text
Duration : 21 min 22 s
Bit rate : 35 b/s
Count of elements : 153
Stream size : 5.48 KiB (0%)
Language : Finnish
Default : No
Forced : No

Text #5
ID : 7
Format : UTF-8
Codec ID : S_TEXT/UTF8
Codec ID/Info : UTF-8 Plain Text
Duration : 21 min 26 s
Bit rate : 41 b/s
Count of elements : 193
Stream size : 6.59 KiB (0%)
Title : SDH
Language : Norwegian Bokmal
Default : No
Forced : No

Text #6
ID : 8
Format : UTF-8
Codec ID : S_TEXT/UTF8
Codec ID/Info : UTF-8 Plain Text
Duration : 21 min 16 s
Bit rate : 34 b/s
Count of elements : 154
Stream size : 5.44 KiB (0%)
Language : Dutch
Default : No
Forced : No

Text #7
ID : 9
Format : UTF-8
Codec ID : S_TEXT/UTF8
Codec ID/Info : UTF-8 Plain Text
Duration : 21 min 22 s
Bit rate : 34 b/s
Count of elements : 149
Stream size : 5.41 KiB (0%)
Language : Swedish
Default : No
Forced : No





Maniac S01E06


Maniac S01E06


Maniac S01E06


Maniac S01E06


Maniac S01E06

All episodes