Featured TV Shows


Marvel's The Defenders S01E05

Posted By: Tavaz
720p (HD) / WEB-DL IMDb
Marvel's The Defenders S01E05

Marvel's The Defenders S01E05
WEB-DL | MKV | 1280x720 | English | H264 @ 1603 kbps | AC-3 @ 384 kbps | 50 min 57 s | 739 MiB
Subtitles: German, Italian, Spanish, French, English
Genre: Crime

Daredevil, Jessica Jones, Luke Cage and Iron Fist join forces to take on common enemies as a sinister conspiracy threatens New York City.

Marvels.The.Defenders.S01E05.Take.Shelter.720p.NF.WEB-DL.DD5.1.x264-NTb.mkv (739.0 MB)



General
Unique ID : 253974024716004580584982633649601990088 (0xBF119E30A43675A3B9EE411CBF7F4DC8)
Complete name : ./Marvels.The.Defenders.S01E05.Take.Shelter.720p.NF.WEB-DL.DD5.1.x264-NTb.mkv
Format : Matroska
Format version : Version 4 / Version 2
File size : 739 MiB
Duration : 50 min 57 s
Overall bit rate mode : Variable
Overall bit rate : 2 027 kb/s
Encoded date : UTC 2017-08-18 12:33:07 / UTC 2017-06-22 15:42:03
Writing application : mkvmerge v11.0.0 ('Alive') 64bit
Writing library : libebml v1.3.4 + libmatroska v1.4.5 / Lavf58.0.0

Video
ID : 1
Format : AVC
Format/Info : Advanced Video Codec
Format profile : Main@L3.1
Format settings : CABAC / 3 Ref Frames
Format settings, CABAC : Yes
Format settings, RefFrames : 3 frames
Codec ID : V_MPEG4/ISO/AVC
Duration : 50 min 57 s
Bit rate mode : Variable
Bit rate : 1 603 kb/s
Nominal bit rate : 1 690 kb/s
Maximum bit rate : 2 535 kb/s
Width : 1 280 pixels
Height : 720 pixels
Display aspect ratio : 16:9
Frame rate mode : Constant
Frame rate : 23.976 (24000/1001) FPS
Color space : YUV
Chroma subsampling : 4:2:0
Bit depth : 8 bits
Scan type : Progressive
Bits/(Pixel*Frame) : 0.073
Stream size : 584 MiB (79%)
Writing library : x264 core 118
Encoding settings : cabac=1 / ref=3 / deblock=1:0:0 / analyse=0x1:0x111 / me=umh / subme=10 / psy=1 / psy_rd=1.00:0.00 / mixed_ref=1 / me_range=24 / chroma_me=1 / trellis=2 / 8x8dct=0 / cqm=0 / deadzone=21,11 / fast_pskip=1 / chroma_qp_offset=-2 / threads=8 / sliced_threads=0 / nr=0 / decimate=1 / interlaced=0 / bluray_compat=0 / constrained_intra=0 / bframes=2 / b_pyramid=0 / b_adapt=2 / b_bias=0 / direct=3 / weightb=1 / open_gop=0 / weightp=2 / keyint=48 / keyint_min=25 / scenecut=0 / intra_refresh=0 / rc_lookahead=0 / rc=2pass / mbtree=1 / bitrate=1690 / ratetol=1.0 / qcomp=0.50 / qpmin=6 / qpmax=51 / qpstep=4 / cplxblur=20.0 / qblur=0.5 / vbv_maxrate=2535 / vbv_bufsize=3380 / nal_hrd=vbr / ip_ratio=1.40 / aq=1:1.00
Default : Yes
Forced : No
Statistics Tags Issue : mkvmerge v11.0.0 ('Alive') 64bit 2017-08-18 12:33:07 / mkvmerge v11.0.0 ('Alive') 64bit 2017-08-18 12:33:07 / UTC 2017-06-22 15:42:03
FromStats_BitRate : 1641317
FromStats_Duration : 00:50:57.430000000
FromStats_FrameCount : 73305
FromStats_StreamSize : 627276827

Audio
ID : 2
Format : AC-3
Format/Info : Audio Coding 3
Format settings, Endianness : Big
Codec ID : A_AC3
Duration : 50 min 57 s
Bit rate mode : Constant
Bit rate : 384 kb/s
Channel(s) : 6 channels
Channel positions : Front: L C R, Side: L R, LFE
Sampling rate : 48.0 kHz
Frame rate : 31.250 FPS (1536 SPF)
Bit depth : 16 bits
Compression mode : Lossy
Stream size : 140 MiB (19%)
Language : English
Service kind : Complete Main
Default : Yes
Forced : No
Encoded date : UTC 2017-06-22 15:42:03
Statistics Tags Issue : mkvmerge v11.0.0 ('Alive') 64bit 2017-08-18 12:33:07 / mkvmerge v11.0.0 ('Alive') 64bit 2017-08-18 12:33:07 / UTC 2017-06-22 15:42:03
FromStats_BitRate : 384000
FromStats_Duration : 00:50:57.824000000
FromStats_FrameCount : 95557
FromStats_StreamSize : 146775552

Text #1
ID : 3
Format : UTF-8
Codec ID : S_TEXT/UTF8
Codec ID/Info : UTF-8 Plain Text
Title : Forced
Language : English
Default : Yes
Forced : Yes
Statistics Tags Issue : mkvmerge v11.0.0 ('Alive') 64bit 2017-08-18 12:33:07 / mkvmerge v11.0.0 ('Alive') 64bit 2017-08-18 12:33:07 / UTC 2017-06-22 15:42:03
FromStats_BitRate : 3
FromStats_Duration : 00:37:36.170000000
FromStats_FrameCount : 33
FromStats_StreamSize : 959

Text #2
ID : 4
Format : UTF-8
Codec ID : S_TEXT/UTF8
Codec ID/Info : UTF-8 Plain Text
Title : English
Language : English
Default : No
Forced : No
Statistics Tags Issue : mkvmerge v11.0.0 ('Alive') 64bit 2017-08-18 12:33:07 / mkvmerge v11.0.0 ('Alive') 64bit 2017-08-18 12:33:07 / UTC 2017-06-22 15:42:03
FromStats_BitRate : 63
FromStats_Duration : 00:44:55.526000000
FromStats_FrameCount : 649
FromStats_StreamSize : 21496

Text #3
ID : 5
Format : UTF-8
Codec ID : S_TEXT/UTF8
Codec ID/Info : UTF-8 Plain Text
Title : Spanish
Language : Spanish
Default : No
Forced : No
Statistics Tags Issue : mkvmerge v11.0.0 ('Alive') 64bit 2017-08-18 12:33:07 / mkvmerge v11.0.0 ('Alive') 64bit 2017-08-18 12:33:07 / UTC 2017-06-22 15:42:03
FromStats_BitRate : 48
FromStats_Duration : 00:48:14.225000000
FromStats_FrameCount : 553
FromStats_StreamSize : 17476

Text #4
ID : 6
Format : UTF-8
Codec ID : S_TEXT/UTF8
Codec ID/Info : UTF-8 Plain Text
Title : French
Language : French
Default : No
Forced : No
Statistics Tags Issue : mkvmerge v11.0.0 ('Alive') 64bit 2017-08-18 12:33:07 / mkvmerge v11.0.0 ('Alive') 64bit 2017-08-18 12:33:07 / UTC 2017-06-22 15:42:03
FromStats_BitRate : 51
FromStats_Duration : 00:48:22.317000000
FromStats_FrameCount : 548
FromStats_StreamSize : 18788

Text #5
ID : 7
Format : UTF-8
Codec ID : S_TEXT/UTF8
Codec ID/Info : UTF-8 Plain Text
Title : German
Language : German
Default : No
Forced : No
Statistics Tags Issue : mkvmerge v11.0.0 ('Alive') 64bit 2017-08-18 12:33:07 / mkvmerge v11.0.0 ('Alive') 64bit 2017-08-18 12:33:07 / UTC 2017-06-22 15:42:03
FromStats_BitRate : 52
FromStats_Duration : 00:47:57.249000000
FromStats_FrameCount : 533
FromStats_StreamSize : 18902

Text #6
ID : 8
Format : UTF-8
Codec ID : S_TEXT/UTF8
Codec ID/Info : UTF-8 Plain Text
Title : Italian
Language : Italian
Default : No
Forced : No
Statistics Tags Issue : mkvmerge v11.0.0 ('Alive') 64bit 2017-08-18 12:33:07 / mkvmerge v11.0.0 ('Alive') 64bit 2017-08-18 12:33:07 / UTC 2017-06-22 15:42:03
FromStats_BitRate : 50
FromStats_Duration : 00:47:57.249000000
FromStats_FrameCount : 541
FromStats_StreamSize : 18168





Marvel's The Defenders S01E05


Marvel's The Defenders S01E05


Marvel's The Defenders S01E05


Marvel's The Defenders S01E05


Marvel's The Defenders S01E05

All episodes