Featured TV Shows


NOVA S45E02

Posted By: Tavaz
SD / WEB-DL IMDb
NOVA S45E02

NOVA S45E02
WEB-DL | MKV | 768x432 | English | H264 @ 1099 kbps | AAC @ 93 kbps | 1 h 52 min | 965 MiB
Genre: Documentary

PBS' premier science series helps viewers of all ages explore the science behind the headlines. Along the way, NOVA demystifies science and technology, and highlights the people involved in scientific pursuits.

241ddd75bede41e4bc490dd485e22d00.mkv (965.0 MB)



General
Unique ID : 213228462321051688937059222126966535961 (0xA06A4EDCE333B79F2A1B8B3966B2F719)
Complete name : ./241ddd75bede41e4bc490dd485e22d00.mkv
Format : Matroska
Format version : Version 4 / Version 2
File size : 965 MiB
Duration : 1 h 52 min
Overall bit rate : 1 194 kb/s
Encoded date : UTC 2018-02-01 15:13:03
Writing application : mkvmerge v20.0.0 ('I Am The Sun') 64-bit
Writing library : libebml v1.3.5 + libmatroska v1.4.8

Video
ID : 1
Format : AVC
Format/Info : Advanced Video Codec
Format profile : High@L3
Format settings : CABAC / 3 Ref Frames
Format settings, CABAC : Yes
Format settings, RefFrames : 3 frames
Codec ID : V_MPEG4/ISO/AVC
Duration : 1 h 52 min
Bit rate mode : Constant
Bit rate : 1 100 kb/s
Width : 768 pixels
Height : 432 pixels
Display aspect ratio : 16:9
Frame rate mode : Constant
Frame rate : 29.970 (30000/1001) FPS
Color space : YUV
Chroma subsampling : 4:2:0
Bit depth : 8 bits
Scan type : Progressive
Bits/(Pixel*Frame) : 0.111
Stream size : 887 MiB (92%)
Default : Yes
Forced : No

Audio
ID : 2
Format : AAC
Format/Info : Advanced Audio Codec
Format profile : LC
Codec ID : A_AAC-2
Duration : 1 h 52 min
Bit rate : 93.4 kb/s
Channel(s) : 2 channels
Channel positions : Front: L R
Sampling rate : 48.0 kHz
Frame rate : 46.875 FPS (1024 SPF)
Compression mode : Lossy
Delay relative to video : -33 ms
Stream size : 75.4 MiB (8%)
Title : English
Default : Yes
Forced : No





NOVA S45E02


NOVA S45E02


NOVA S45E02


NOVA S45E02


NOVA S45E02

All episodes