Featured TV Shows


NOVA S45E04

Posted By: Tavaz
SD / HDTV IMDb
NOVA S45E04

NOVA S45E04
HDTV | TS | 1920x1080 | English | H264 @ 11879 kbps | AC-3 @ 448 kbps | 53 min 0 s | 4.80 GiB
Genre: Documentary

PBS' premier science series helps viewers of all ages explore the science behind the headlines. Along the way, NOVA demystifies science and technology, and highlights the people involved in scientific pursuits.

NOVA S45E04 Great Escape at Dunkirk 1080i HDTV DD2.0 H.264-TrollHD.ts (4.8 GB)



General
ID : 1 (0x1)
Complete name : ./NOVA S45E04 Great Escape at Dunkirk 1080i HDTV DD2.0 H.264-TrollHD.ts
Format : MPEG-TS
File size : 4.80 GiB
Duration : 53 min 0 s
Overall bit rate mode : Variable
Overall bit rate : 13.0 Mb/s
Law rating : TV-PG

Video
ID : 49 (0x31)
Menu ID : 1 (0x1)
Format : AVC
Format/Info : Advanced Video Codec
Format profile : High@L4
Format settings : CABAC / 4 Ref Frames
Format settings, CABAC : Yes
Format settings, RefFrames : 4 frames
Codec ID : 27
Duration : 53 min 3 s
Bit rate : 11.9 Mb/s
Width : 1 920 pixels
Height : 1 080 pixels
Display aspect ratio : 16:9
Frame rate : 29.970 (30000/1001) FPS
Color space : YUV
Chroma subsampling : 4:2:0
Bit depth : 8 bits
Scan type : Interlaced
Scan type, store method : Separated fields
Scan order : Top Field First
Bits/(Pixel*Frame) : 0.191
Stream size : 4.40 GiB (92%)
Color range : Limited
Color primaries : BT.709
Transfer characteristics : BT.709
Matrix coefficients : BT.709

Audio
ID : 52 (0x34)
Menu ID : 1 (0x1)
Format : AC-3
Format/Info : Audio Coding 3
Format settings, Endianness : Big
Codec ID : 129
Duration : 53 min 3 s
Bit rate mode : Constant
Bit rate : 448 kb/s
Channel(s) : 2 channels
Channel positions : Front: L R
Sampling rate : 48.0 kHz
Frame rate : 31.250 FPS (1536 SPF)
Bit depth : 16 bits
Compression mode : Lossy
Stream size : 170 MiB (3%)
Language : English
Service kind : Complete Main

Text #1
ID : 49 (0x31)-CC1
Menu ID : 1 (0x1)
Format : EIA-608
Muxing mode : SCTE 128 / DTVCC Transport
Muxing mode, more info : Muxed in Video #1
Duration : 53 min 3 s
Bit rate mode : Constant
Stream size : 0.00 Byte (0%)
CaptionServiceName : CC1

Text #2
ID : 49 (0x31)-1
Menu ID : 1 (0x1)
Format : EIA-708
Muxing mode : SCTE 128 / DTVCC Transport
Muxing mode, more info : Muxed in Video #1
Duration : 53 min 3 s
Bit rate mode : Constant
Stream size : 0.00 Byte (0%)





NOVA S45E04


NOVA S45E04


NOVA S45E04


NOVA S45E04


NOVA S45E04

All episodes