Featured TV Shows


NOVA S45E06

Posted By: Tavaz
SD / HDTV IMDb
NOVA S45E06

NOVA S45E06
HDTV | TS | 1920x1080 | English / Spanish / French | MPV @ 11432 kbps | AC-3 @ 384 kbps | 1 h 56 min | 10.3 GiB
Genre: Documentary

PBS' premier science series helps viewers of all ages explore the science behind the headlines. Along the way, NOVA demystifies science and technology, and highlights the people involved in scientific pursuits.

NOVA S45E06 Decoding the Weather Machine 1080i HDTV DD2.0 MPEG2-TrollHD.ts (10.3 GB)



General
ID : 1 (0x1)
Complete name : ./NOVA S45E06 Decoding the Weather Machine 1080i HDTV DD2.0 MPEG2-TrollHD.ts
Format : MPEG-TS
File size : 10.3 GiB
Duration : 1 h 56 min
Overall bit rate mode : Variable
Overall bit rate : 12.7 Mb/s
Law rating : TV-PG

Video
ID : 5131 (0x140B)
Menu ID : 1026 (0x402)
Format : MPEG Video
Format version : Version 2
Format profile : Main@High
Format settings : BVOP
Format settings, BVOP : Yes
Format settings, Matrix : Default
Format settings, GOP : Variable
Format settings, picture structure : Frame
Codec ID : 2
Duration : 1 h 56 min
Bit rate mode : Variable
Bit rate : 11.4 Mb/s
Maximum bit rate : 64.0 Mb/s
Width : 1 920 pixels
Height : 1 080 pixels
Display aspect ratio : 16:9
Active Format Description : Full frame 16:9 image
Frame rate : 29.970 (30000/1001) FPS
Color space : YUV
Chroma subsampling : 4:2:0
Bit depth : 8 bits
Scan type : Interlaced
Scan order : Top Field First
Compression mode : Lossy
Bits/(Pixel*Frame) : 0.184
Time code of first frame : 00:00:00;00
Time code source : Group of pictures header
Stream size : 9.28 GiB (90%)
Color primaries : BT.709
Transfer characteristics : BT.709
Matrix coefficients : BT.709

Audio #1
ID : 5132 (0x140C)
Menu ID : 1026 (0x402)
Format : AC-3
Format/Info : Audio Coding 3
Format settings, Endianness : Big
Codec ID : 129
Duration : 1 h 56 min
Bit rate mode : Constant
Bit rate : 384 kb/s
Channel(s) : 2 channels
Channel positions : Front: L R
Sampling rate : 48.0 kHz
Frame rate : 31.250 FPS (1536 SPF)
Bit depth : 16 bits
Compression mode : Lossy
Delay relative to video : 20 ms
Stream size : 319 MiB (3%)
Language : English
Service kind : Complete Main

Audio #2
ID : 5133 (0x140D)
Menu ID : 1026 (0x402)
Format : AC-3
Format/Info : Audio Coding 3
Format settings, Endianness : Big
Codec ID : 129
Duration : 1 h 56 min
Bit rate mode : Constant
Bit rate : 128 kb/s
Channel(s) : 2 channels
Channel positions : Front: L R
Sampling rate : 48.0 kHz
Frame rate : 31.250 FPS (1536 SPF)
Bit depth : 16 bits
Compression mode : Lossy
Delay relative to video : 27 ms
Stream size : 106 MiB (1%)
Language : Spanish
Service kind : Complete Main

Audio #3
ID : 5134 (0x140E)
Menu ID : 1026 (0x402)
Format : AC-3
Format/Info : Audio Coding 3
Format settings, Endianness : Big
Codec ID : 129
Duration : 1 h 56 min
Bit rate mode : Constant
Bit rate : 128 kb/s
Channel(s) : 2 channels
Channel positions : Front: L R
Sampling rate : 48.0 kHz
Frame rate : 31.250 FPS (1536 SPF)
Bit depth : 16 bits
Compression mode : Lossy
Delay relative to video : 27 ms
Stream size : 106 MiB (1%)
Language : French
Service kind : Complete Main

Text #1
ID : 5131 (0x140B)-CC1
Menu ID : 1026 (0x402)
Format : EIA-608
Muxing mode : A/53 / DTVCC Transport
Muxing mode, more info : Muxed in Video #1
Duration : 1 h 56 min
Bit rate mode : Constant
Stream size : 0.00 Byte (0%)
CaptionServiceName : CC1

Text #2
ID : 5131 (0x140B)-1
Menu ID : 1026 (0x402)
Format : EIA-708
Muxing mode : A/53 / DTVCC Transport
Muxing mode, more info : Muxed in Video #1
Duration : 1 h 56 min
Bit rate mode : Constant
Stream size : 0.00 Byte (0%)





NOVA S45E06


NOVA S45E06


NOVA S45E06


NOVA S45E06


NOVA S45E06

All episodes