Featured TV Shows


NOVA S45E15

Posted By: Tavaz
720p (HD) / WEB-DL IMDb
NOVA S45E15

NOVA S45E15
WEB-DL | MKV | 1280x720 | English | H264 @ 3000 kbps | AAC @ 93 kbps | 53 min 33 s | 1.16 GiB
Subtitles: English
Genre: Documentary

PBS' premier science series helps viewers of all ages explore the science behind the headlines. Along the way, NOVA demystifies science and technology, and highlights the people involved in scientific pursuits.

2afa668c64714dcd9ec4e38b1ce1a93b.mkv (1.2 GB)



General
Unique ID : 232940064211397102554050647348164827602 (0xAF3E9FDEA81D0E04CFA5F59B835619D2)
Complete name : ./2afa668c64714dcd9ec4e38b1ce1a93b.mkv
Format : Matroska
Format version : Version 4 / Version 2
File size : 1.16 GiB
Duration : 53 min 33 s
Overall bit rate : 3 092 kb/s
Encoded date : UTC 2018-11-15 03:36:28
Writing application : mkvmerge v28.2.0 ('The Awakening') 64-bit
Writing library : libebml v1.3.6 + libmatroska v1.4.9

Video
ID : 1
Format : AVC
Format/Info : Advanced Video Codec
Format profile : High@L3.1
Format settings : CABAC / 3 Ref Frames
Format settings, CABAC : Yes
Format settings, RefFrames : 3 frames
Codec ID : V_MPEG4/ISO/AVC
Duration : 53 min 33 s
Bit rate mode : Constant
Bit rate : 3 000 kb/s
Width : 1 280 pixels
Height : 720 pixels
Display aspect ratio : 16:9
Frame rate mode : Constant
Frame rate : 29.970 (30000/1001) FPS
Color space : YUV
Chroma subsampling : 4:2:0
Bit depth : 8 bits
Scan type : Progressive
Bits/(Pixel*Frame) : 0.109
Stream size : 1.12 GiB (97%)
Default : Yes
Forced : No

Audio
ID : 2
Format : AAC
Format/Info : Advanced Audio Codec
Format profile : LC
Codec ID : A_AAC-2
Duration : 53 min 33 s
Bit rate : 93.4 kb/s
Channel(s) : 2 channels
Channel positions : Front: L R
Sampling rate : 48.0 kHz
Frame rate : 46.875 FPS (1024 SPF)
Compression mode : Lossy
Delay relative to video : -33 ms
Stream size : 35.8 MiB (3%)
Language : English
Default : Yes
Forced : No

Text
ID : 3
Format : UTF-8
Codec ID : S_TEXT/UTF8
Codec ID/Info : UTF-8 Plain Text
Duration : 53 min 17 s
Bit rate : 99 b/s
Count of elements : 1068
Stream size : 38.8 KiB (0%)
Language : English
Default : Yes
Forced : No





NOVA S45E15


NOVA S45E15


NOVA S45E15


NOVA S45E15


NOVA S45E15

All episodes