Featured TV Shows


NOVA S46E06

Posted By: Tavaz
SD / HDTV IMDb
NOVA S46E06

NOVA S46E06
HDTV | MKV | 1920x1080 | English | H264 @ 12154 kbps | AC-3 @ 448 kbps | 53 min 0 s | 4.67 GiB
Subtitles: English
Genre: Documentary

PBS' premier science series helps viewers of all ages explore the science behind the headlines. Along the way, NOVA demystifies science and technology, and highlights the people involved in scientific pursuits.

497914cdce974d579ac1cdce36b822bc.mkv (4.7 GB)



General
Unique ID : 185254896004392789762503247900941235907 (0x8B5ECB8F56A11121AB1B12123C5836C3)
Complete name : ./497914cdce974d579ac1cdce36b822bc.mkv
Format : Matroska
Format version : Version 4 / Version 2
File size : 4.67 GiB
Duration : 53 min 0 s
Overall bit rate : 12.6 Mb/s
Encoded date : UTC 2019-02-22 01:10:48
Writing application : mkvmerge v23.0.0 ('The Bride Said No') 64-bit
Writing library : libebml v1.3.6 + libmatroska v1.4.9

Video
ID : 1
Format : AVC
Format/Info : Advanced Video Codec
Format profile : High@L4
Format settings : CABAC / 4 Ref Frames
Format settings, CABAC : Yes
Format settings, RefFrames : 4 frames
Codec ID : V_MPEG4/ISO/AVC
Duration : 53 min 0 s
Bit rate : 12.2 Mb/s
Width : 1 920 pixels
Height : 1 080 pixels
Display aspect ratio : 16:9
Frame rate mode : Variable
Frame rate : 59.940 (60000/1001) FPS
Original frame rate : 29.970 (30000/1001) FPS
Color space : YUV
Chroma subsampling : 4:2:0
Bit depth : 8 bits
Scan type : Interlaced
Scan type, store method : Separated fields
Scan order : Top Field First
Bits/(Pixel*Frame) : 0.098
Stream size : 4.50 GiB (96%)
Default : Yes
Forced : No
Color range : Limited
Color primaries : BT.709
Transfer characteristics : BT.709
Matrix coefficients : BT.709

Audio
ID : 2
Format : AC-3
Format/Info : Audio Coding 3
Format settings, Endianness : Big
Codec ID : A_AC3
Duration : 53 min 0 s
Bit rate mode : Constant
Bit rate : 448 kb/s
Channel(s) : 2 channels
Channel positions : Front: L R
Sampling rate : 48.0 kHz
Frame rate : 31.250 FPS (1536 SPF)
Bit depth : 16 bits
Compression mode : Lossy
Stream size : 170 MiB (4%)
Language : English
Service kind : Complete Main
Default : Yes
Forced : No

Text
ID : 3
Format : UTF-8
Codec ID : S_TEXT/UTF8
Codec ID/Info : UTF-8 Plain Text
Duration : 52 min 46 s
Bit rate : 104 b/s
Count of elements : 910
Stream size : 40.2 KiB (0%)
Language : English
Default : Yes
Forced : No





NOVA S46E06


NOVA S46E06


NOVA S46E06


NOVA S46E06


NOVA S46E06

All episodes