Featured TV Shows


NOVA S46E09

Posted By: Tavaz
1080p (FullHD) / HDTV IMDb
NOVA S46E09

NOVA S46E09
HDTV | MKV | 1920x1080 | H264 @ 11886 kbps | AC-3 @ 448 kbps | 52 min 58 s | 4.66 GiB
Genre: Documentary


PBS' premier science series helps viewers of all ages explore the science behind the headlines. Along the way, NOVA demystifies science and technology, and highlights the people involved in scientific pursuits.

f843565107ec4a4587779e7dc2d9b3c2.mkv (4.7 GB)



General
Unique ID : 302917584561707609970349508381121002688 (0xE3E3CDFF6F74DC2C1DACD4443D453CC0)
Complete name : ./f843565107ec4a4587779e7dc2d9b3c2.mkv
Format : Matroska
Format version : Version 4 / Version 2
File size : 4.66 GiB
Duration : 52 min 58 s
Overall bit rate : 12.6 Mb/s
Writing application : Lavf57.82.100
Writing library : Lavf57.82.100
ErrorDetectionType : Per level 1

Video
ID : 1
Format : AVC
Format/Info : Advanced Video Codec
Format profile : High@L4
Format settings : CABAC / 4 Ref Frames
Format settings, CABAC : Yes
Format settings, RefFrames : 4 frames
Codec ID : V_MPEG4/ISO/AVC
Duration : 52 min 58 s
Bit rate : 11.9 Mb/s
Width : 1 920 pixels
Height : 1 080 pixels
Display aspect ratio : 16:9
Frame rate mode : Variable
Original frame rate : 29.970 FPS
Color space : YUV
Chroma subsampling : 4:2:0
Bit depth : 8 bits
Scan type : Interlaced
Scan type, store method : Separated fields
Scan order : Top Field First
Stream size : 4.40 GiB (94%)
Default : Yes
Forced : No
Color range : Limited
Color primaries : BT.709
Transfer characteristics : BT.709
Matrix coefficients : BT.709

Audio
ID : 2
Format : AC-3
Format/Info : Audio Coding 3
Format settings, Endianness : Big
Codec ID : A_AC3
Duration : 52 min 58 s
Bit rate mode : Constant
Bit rate : 448 kb/s
Channel(s) : 2 channels
Channel positions : Front: L R
Sampling rate : 48.0 kHz
Frame rate : 31.250 FPS (1536 SPF)
Bit depth : 16 bits
Compression mode : Lossy
Stream size : 170 MiB (4%)
Service kind : Complete Main
Default : Yes
Forced : No

Text
ID : 3
Format : ASS
Codec ID : S_TEXT/ASS
Codec ID/Info : Advanced Sub Station Alpha
Duration : 35 min 56 s
Compression mode : Lossless
Writing library : Lavc57.106.101 ssa
Default : Yes
Forced : No





NOVA S46E09


NOVA S46E09


NOVA S46E09


NOVA S46E09


NOVA S46E09

All episodes