Featured TV Shows


NOVA S46E17

Posted By: Tavaz
720p (HD) / WEB-DL IMDb
NOVA S46E17

NOVA S46E17
WEB-DL | MKV | 1280x720 | English | H264 @ 3000 kbps | AAC @ 93 kbps | 53 min 8 s | 1.15 GiB
Subtitles: English
Genre: Documentary


PBS' premier science series helps viewers of all ages explore the science behind the headlines. Along the way, NOVA demystifies science and technology, and highlights the people involved in scientific pursuits.

418b5de7015d4162b51c94edbb4b2ea7.mkv (1.1 GB)



General
Unique ID : 105071749155547573609886075017278513529 (0x4F0C15326E97E9070E26A61FD53FE179)
Complete name : ./418b5de7015d4162b51c94edbb4b2ea7.mkv
Format : Matroska
Format version : Version 4 / Version 2
File size : 1.15 GiB
Duration : 53 min 8 s
Overall bit rate : 3 094 kb/s
Encoded date : UTC 2019-10-17 01:16:38
Writing application : mkvmerge v38.0.0 ('The Silent Type') 64-bit
Writing library : libebml v1.3.9 + libmatroska v1.5.2

Video
ID : 1
Format : AVC
Format/Info : Advanced Video Codec
Format profile : High@L3.1
Format settings : CABAC / 3 Ref Frames
Format settings, CABAC : Yes
Format settings, RefFrames : 3 frames
Codec ID : V_MPEG4/ISO/AVC
Duration : 53 min 8 s
Bit rate mode : Constant
Bit rate : 3 000 kb/s
Width : 1 280 pixels
Height : 720 pixels
Display aspect ratio : 16:9
Frame rate mode : Constant
Frame rate : 29.970 (30000/1001) FPS
Color space : YUV
Chroma subsampling : 4:2:0
Bit depth : 8 bits
Scan type : Progressive
Bits/(Pixel*Frame) : 0.109
Stream size : 1.11 GiB (97%)
Default : Yes
Forced : No

Audio
ID : 2
Format : AAC
Format/Info : Advanced Audio Codec
Format profile : LC
Codec ID : A_AAC-2
Duration : 53 min 8 s
Bit rate : 93.4 kb/s
Channel(s) : 2 channels
Channel positions : Front: L R
Sampling rate : 48.0 kHz
Frame rate : 46.875 FPS (1024 SPF)
Compression mode : Lossy
Delay relative to video : -33 ms
Stream size : 35.5 MiB (3%)
Language : English
Default : Yes
Forced : No

Text
ID : 3
Format : UTF-8
Codec ID : S_TEXT/UTF8
Codec ID/Info : UTF-8 Plain Text
Duration : 52 min 56 s
Bit rate : 76 b/s
Count of elements : 863
Stream size : 29.7 KiB (0%)
Language : English
Default : Yes
Forced : No





NOVA S46E17


NOVA S46E17


NOVA S46E17


NOVA S46E17


NOVA S46E17

All episodes