Featured TV Shows


NOVA S46E20

Posted By: Tavaz
720p (HD) / WEBRip IMDb
NOVA S46E20

NOVA S46E20
WEBRip | MKV | 1280x720 | English | H264 @ 4499 kbps | AAC @ 93 kbps | 53 min 24 s | 1.71 GiB
Genre: Documentary


PBS' premier science series helps viewers of all ages explore the science behind the headlines. Along the way, NOVA demystifies science and technology, and highlights the people involved in scientific pursuits.

c753fe32a82a46eb8330d2a7e1d46ea2.mkv (1.7 GB)



General
Unique ID : 162439133232524599117478723433237532934 (0x7A34A39AF64692865DAAED158CDB5106)
Complete name : ./c753fe32a82a46eb8330d2a7e1d46ea2.mkv
Format : Matroska
Format version : Version 4 / Version 2
File size : 1.71 GiB
Duration : 53 min 24 s
Overall bit rate : 4 585 kb/s
Encoded date : UTC 2019-11-10 21:20:00
Writing application : mkvmerge v8.8.0 ('Wind at my back') 64bit
Writing library : libebml v1.3.3 + libmatroska v1.4.4

Video
ID : 1
Format : AVC
Format/Info : Advanced Video Codec
Format profile : High@L3.1
Format settings : CABAC / 3 Ref Frames
Format settings, CABAC : Yes
Format settings, RefFrames : 3 frames
Codec ID : V_MPEG4/ISO/AVC
Duration : 53 min 24 s
Bit rate mode : Constant
Bit rate : 4 500 kb/s
Width : 1 280 pixels
Height : 720 pixels
Display aspect ratio : 16:9
Frame rate mode : Constant
Frame rate : 29.970 (30000/1001) FPS
Color space : YUV
Chroma subsampling : 4:2:0
Bit depth : 8 bits
Scan type : Progressive
Bits/(Pixel*Frame) : 0.163
Stream size : 1.67 GiB (98%)
Language : English
Default : Yes
Forced : Yes

Audio
ID : 2
Format : AAC
Format/Info : Advanced Audio Codec
Format profile : LC
Codec ID : A_AAC-2
Duration : 53 min 24 s
Bit rate : 93.4 kb/s
Channel(s) : 2 channels
Channel positions : Front: L R
Sampling rate : 48.0 kHz
Frame rate : 46.875 FPS (1024 SPF)
Compression mode : Lossy
Stream size : 35.7 MiB (2%)
Language : English
Default : Yes
Forced : Yes





NOVA S46E20


NOVA S46E20


NOVA S46E20


NOVA S46E20


NOVA S46E20

All episodes