Featured TV Shows


NOVA S46E22

Posted By: Tavaz
1080p (FullHD) / WEBRip IMDb
NOVA S46E22

NOVA S46E22
WEBRip | MKV | 1920x1080 | English | H264 @ 6499 kbps | AAC @ 93 kbps | 1 h 53 min | 5.22 GiB
Genre: Documentary


PBS' premier science series helps viewers of all ages explore the science behind the headlines. Along the way, NOVA demystifies science and technology, and highlights the people involved in scientific pursuits.

8f0892e088c74ce78b3c8c2ba5c720b5.mkv (5.2 GB)



General
Unique ID : 5056277887072769048024688260797350061 (0x3CDCDBF377B2E7CE22E60BD2852C0AD)
Complete name : ./8f0892e088c74ce78b3c8c2ba5c720b5.mkv
Format : Matroska
Format version : Version 4 / Version 2
File size : 5.22 GiB
Duration : 1 h 53 min
Overall bit rate : 6 590 kb/s
Encoded date : UTC 2019-11-23 14:13:04
Writing application : mkvmerge v8.8.0 ('Wind at my back') 64bit
Writing library : libebml v1.3.3 + libmatroska v1.4.4

Video
ID : 1
Format : AVC
Format/Info : Advanced Video Codec
Format profile : High@L4
Format settings : CABAC / 3 Ref Frames
Format settings, CABAC : Yes
Format settings, RefFrames : 3 frames
Codec ID : V_MPEG4/ISO/AVC
Duration : 1 h 53 min
Bit rate mode : Constant
Bit rate : 6 500 kb/s
Width : 1 920 pixels
Height : 1 080 pixels
Display aspect ratio : 16:9
Frame rate mode : Constant
Frame rate : 29.970 (30000/1001) FPS
Color space : YUV
Chroma subsampling : 4:2:0
Bit depth : 8 bits
Scan type : Progressive
Bits/(Pixel*Frame) : 0.105
Stream size : 5.14 GiB (99%)
Language : English
Default : Yes
Forced : Yes

Audio
ID : 2
Format : AAC
Format/Info : Advanced Audio Codec
Format profile : LC
Codec ID : A_AAC-2
Duration : 1 h 53 min
Bit rate : 93.4 kb/s
Channel(s) : 2 channels
Channel positions : Front: L R
Sampling rate : 48.0 kHz
Frame rate : 46.875 FPS (1024 SPF)
Compression mode : Lossy
Stream size : 75.7 MiB (1%)
Language : English
Default : Yes
Forced : Yes





NOVA S46E22


NOVA S46E22


NOVA S46E22


NOVA S46E22


NOVA S46E22

All episodes