Featured TV Shows


NOVA S45E05

Posted By: Tavaz
SD / HDTV IMDb
NOVA S45E05

NOVA S45E05
HDTV | MKV | 720x404 | English | H264 @ 1061 kbps | AAC @ 126 kbps | 52 min 45 s | 450 MiB
Subtitles: English
Genre: Documentary

PBS' premier science series helps viewers of all ages explore the science behind the headlines. Along the way, NOVA demystifies science and technology, and highlights the people involved in scientific pursuits.

nova.s45e05.prediction.by.the.numbers.hdtv.x264-w4f.mkv (450.0 MB)



General
Unique ID : 201861271855885848557612269091953519192 (0x97DD111A5324E6DE883A07E7986B2A58)
Complete name : ./nova.s45e05.prediction.by.the.numbers.hdtv.x264-w4f.mkv
Format : Matroska
Format version : Version 4 / Version 2
File size : 450 MiB
Duration : 52 min 45 s
Overall bit rate : 1 192 kb/s
Encoded date : UTC 2018-03-13 04:03:25
Writing application : mkvmerge v9.7.1 ('Pandemonium') 64bit
Writing library : libebml v1.3.4 + libmatroska v1.4.5

Video
ID : 1
Format : AVC
Format/Info : Advanced Video Codec
Format profile : High@L3.1
Format settings : CABAC / 5 Ref Frames
Format settings, CABAC : Yes
Format settings, RefFrames : 5 frames
Codec ID : V_MPEG4/ISO/AVC
Duration : 52 min 45 s
Bit rate : 1 061 kb/s
Width : 720 pixels
Height : 404 pixels
Display aspect ratio : 16:9
Frame rate mode : Constant
Frame rate : 59.940 (60000/1001) FPS
Color space : YUV
Chroma subsampling : 4:2:0
Bit depth : 8 bits
Scan type : Progressive
Bits/(Pixel*Frame) : 0.061
Stream size : 401 MiB (89%)
Writing library : x264 core 155 r2901 7d0ff22
Encoding settings : cabac=1 / ref=5 / deblock=1:0:0 / analyse=0x3:0x113 / me=hex / subme=8 / psy=1 / psy_rd=1.00:0.00 / mixed_ref=1 / me_range=16 / chroma_me=1 / trellis=2 / 8x8dct=1 / cqm=0 / deadzone=21,11 / fast_pskip=1 / chroma_qp_offset=-2 / threads=12 / lookahead_threads=2 / sliced_threads=0 / nr=0 / decimate=1 / interlaced=0 / bluray_compat=0 / constrained_intra=0 / bframes=3 / b_pyramid=2 / b_adapt=1 / b_bias=0 / direct=3 / weightb=1 / open_gop=0 / weightp=2 / keyint=250 / keyint_min=25 / scenecut=40 / intra_refresh=0 / rc_lookahead=50 / rc=crf / mbtree=1 / crf=21.0 / qcomp=0.60 / qpmin=0 / qpmax=69 / qpstep=4 / ip_ratio=1.40 / aq=1:1.00
Default : Yes
Forced : No
Color range : Limited
Matrix coefficients : BT.709

Audio
ID : 2
Format : AAC
Format/Info : Advanced Audio Codec
Format profile : LC
Codec ID : A_AAC-2
Duration : 52 min 45 s
Bit rate : 127 kb/s
Channel(s) : 2 channels
Channel positions : Front: L R
Sampling rate : 48.0 kHz
Frame rate : 46.875 FPS (1024 SPF)
Compression mode : Lossy
Delay relative to video : 20 ms
Stream size : 47.8 MiB (11%)
Language : English
Default : Yes
Forced : No

Text
ID : 3
Format : UTF-8
Codec ID : S_TEXT/UTF8
Codec ID/Info : UTF-8 Plain Text
Duration : 52 min 32 s
Bit rate : 133 b/s
Count of elements : 1083
Stream size : 51.5 KiB (0%)
Language : English
Default : No
Forced : No





NOVA S45E05


NOVA S45E05


NOVA S45E05


NOVA S45E05


NOVA S45E05

All episodes