Featured TV Shows


Our World S2018E03

Posted By: Tavaz
SD / WEBRip IMDb
Our World S2018E03

Our World S2018E03
WEBRip | MOV | 854x480 | English | H264 @ 622 kbps | AAC @ 128 kbps | 23 min 9 s | 125 MiB
Subtitles: English
Genre: Documentary

Current affairs documentary reporting on issues around the world

Our.World.S2018E03.Russias.Ghost.Towns.WEBRip.x264-RBB.mp4 (125.3 MB)



General
Complete name : ./Our.World.S2018E03.Russias.Ghost.Towns.WEBRip.x264-RBB.mp4
Format : MPEG-4
Format profile : Base Media
Codec ID : isom (isom/iso2/avc1/mp41)
File size : 125 MiB
Duration : 23 min 9 s
Overall bit rate mode : Variable
Overall bit rate : 756 kb/s
Movie name : Our World S2018E03
Description : {name}
Writing application : Lavf56.32.100
Comment : {name}

Video
ID : 1
Format : AVC
Format/Info : Advanced Video Codec
Format profile : High@L3.1
Format settings : CABAC / 4 Ref Frames
Format settings, CABAC : Yes
Format settings, RefFrames : 4 frames
Codec ID : avc1
Codec ID/Info : Advanced Video Coding
Duration : 23 min 9 s
Bit rate : 622 kb/s
Width : 854 pixels
Height : 480 pixels
Display aspect ratio : 16:9
Frame rate mode : Variable
Frame rate : 25.000 FPS
Minimum frame rate : 16.393 FPS
Maximum frame rate : 25.000 FPS
Color space : YUV
Chroma subsampling : 4:2:0
Bit depth : 8 bits
Scan type : Progressive
Bits/(Pixel*Frame) : 0.061
Stream size : 103 MiB (82%)
Writing library : x264 core 152 r19 ba24899
Encoding settings : cabac=1 / ref=3 / deblock=1:0:0 / analyse=0x3:0x113 / me=umh / subme=8 / psy=1 / psy_rd=1.00:0.00 / mixed_ref=1 / me_range=16 / chroma_me=1 / trellis=1 / 8x8dct=1 / cqm=0 / deadzone=21,11 / fast_pskip=0 / chroma_qp_offset=-2 / threads=8 / lookahead_threads=2 / sliced_threads=0 / nr=0 / decimate=1 / interlaced=0 / bluray_compat=0 / constrained_intra=0 / bframes=8 / b_pyramid=2 / b_adapt=1 / b_bias=0 / direct=1 / weightb=1 / open_gop=0 / weightp=2 / keyint=250 / keyint_min=23 / scenecut=40 / intra_refresh=0 / rc_lookahead=40 / rc=crf / mbtree=1 / crf=23.5 / qcomp=0.60 / qpmin=0 / qpmax=69 / qpstep=4 / vbv_maxrate=10000 / vbv_bufsize=10000 / crf_max=0.0 / nal_hrd=none / filler=0 / ip_ratio=1.40 / aq=1:1.00

Audio
ID : 2
Format : AAC
Format/Info : Advanced Audio Codec
Format profile : LC
Codec ID : mp4a-40-2
Duration : 23 min 9 s
Bit rate mode : Constant
Bit rate : 128 kb/s
Channel(s) : 2 channels
Channel positions : Front: L R
Sampling rate : 48.0 kHz
Frame rate : 46.875 FPS (1024 SPF)
Compression mode : Lossy
Stream size : 21.3 MiB (17%)
Language : English
Default : Yes
Alternate group : 1

Text
ID : 3
Format : Timed Text
Muxing mode : sbtl
Codec ID : tx3g
Duration : 22 min 17 s
Bit rate mode : Variable
Bit rate : 46 b/s
Stream size : 7.44 KiB (0%)
Language : English
Default : Yes
Forced : No
Alternate group : 3





Our World S2018E03


Our World S2018E03


Our World S2018E03


Our World S2018E03


Our World S2018E03

All episodes