Featured TV Shows


Our World S2018E04

Posted By: Tavaz
SD / WEBRip IMDb
Our World S2018E04

Our World S2018E04
WEBRip | MOV | 720x400 | English | H264 @ 1192 kbps | AAC @ 127 kbps | 23 min 0 s | 218 MiB
Genre: Documentary

Current affairs documentary reporting on issues around the world

Our.World.S2018E04.Frances.Stolen.chldren.WEBRip.x264-RBB.mp4 (218.4 MB)



General
Complete name : ./Our.World.S2018E04.Frances.Stolen.chldren.WEBRip.x264-RBB.mp4
Format : MPEG-4
Format profile : Base Media / Version 2
Codec ID : mp42 (mp42)
File size : 218 MiB
Duration : 23 min 0 s
Overall bit rate : 1 327 kb/s
Movie name : Our World S2018E04
Codirector : codirector
Production studio : studio
ContentType : Unknown Type
Encoded date : UTC 2018-02-05 12:49:38
Tagged date : UTC 2018-02-05 12:49:38
Comment : {name}

Video
ID : 1
Format : AVC
Format/Info : Advanced Video Codec
Format profile : Main@L4.1
Format settings : CABAC / 2 Ref Frames
Format settings, CABAC : Yes
Format settings, RefFrames : 2 frames
Format settings, GOP : M=3, N=25
Muxing mode : Container profile=Baseline@3.0
Codec ID : avc1
Codec ID/Info : Advanced Video Coding
Duration : 23 min 0 s
Bit rate : 1 193 kb/s
Width : 720 pixels
Height : 400 pixels
Display aspect ratio : 16:9
Frame rate mode : Constant
Frame rate : 25.000 FPS
Color space : YUV
Chroma subsampling : 4:2:0
Bit depth : 8 bits
Scan type : Progressive
Bits/(Pixel*Frame) : 0.166
Stream size : 196 MiB (90%)
Language : English
Encoded date : UTC 1952-02-05 12:49:38
Tagged date : UTC 1952-02-05 12:49:38

Audio
ID : 2
Format : AAC
Format/Info : Advanced Audio Codec
Format profile : LC
Codec ID : mp4a-40-2
Duration : 23 min 0 s
Bit rate mode : Constant
Bit rate : 128 kb/s
Channel(s) : 2 channels
Channel positions : Front: L R
Sampling rate : 48.0 kHz
Frame rate : 46.875 FPS (1024 SPF)
Compression mode : Lossy
Stream size : 21.1 MiB (10%)
Title : Stereo
Language : English
Default : Yes
Alternate group : 1
Encoded date : UTC 1952-02-05 12:49:38
Tagged date : UTC 1952-02-05 12:49:38





Our World S2018E04


Our World S2018E04


Our World S2018E04


Our World S2018E04


Our World S2018E04

All episodes