Philip K. Dick's Electric Dreams S01E03

Posted By: Tavaz
SD / WEB-DL IMDb
Philip K. Dick's Electric Dreams S01E03

Philip K. Dick's Electric Dreams S01E03
WEB-DL | MKV | 960x540 | English | H264 @ 844 kbps | E-AC-3 @ 224 kbps | 50 min 8 s | 384 MiB
Subtitles: English
Genre: Drama

A diverse anthology of ambitious, moving tales inspired by Philip K Dick's short stories.

5d4294388d2a4c6abb94da1ceb6f3444.mkv (383.9 MB)



General
Unique ID : 232368775039967212564370138747745808651 (0xAED0992391ECC447E49C4ECE44CF310B)
Complete name : ./5d4294388d2a4c6abb94da1ceb6f3444.mkv
Format : Matroska
Format version : Version 4 / Version 2
File size : 384 MiB
Duration : 50 min 8 s
Overall bit rate mode : Variable
Overall bit rate : 1 071 kb/s
Encoded date : UTC 2018-01-14 15:25:10
Writing application : mkvmerge v19.0.0 ('Brave Captain') 64-bit
Writing library : libebml v1.3.5 + libmatroska v1.4.8

Video
ID : 1
Format : AVC
Format/Info : Advanced Video Codec
Format profile : High@L3.1
Format settings : CABAC / 5 Ref Frames
Format settings, CABAC : Yes
Format settings, RefFrames : 5 frames
Codec ID : V_MPEG4/ISO/AVC
Duration : 50 min 8 s
Bit rate mode : Variable
Bit rate : 845 kb/s
Maximum bit rate : 2 995 kb/s
Width : 960 pixels
Height : 540 pixels
Display aspect ratio : 16:9
Frame rate mode : Constant
Frame rate : 23.976 (24000/1001) FPS
Color space : YUV
Chroma subsampling : 4:2:0
Bit depth : 8 bits
Scan type : Progressive
Bits/(Pixel*Frame) : 0.068
Stream size : 303 MiB (79%)
Default : Yes
Forced : No
Color range : Limited
Color primaries : BT.709
Transfer characteristics : BT.709
Matrix coefficients : BT.709

Audio
ID : 2
Format : E-AC-3
Format/Info : Enhanced Audio Coding 3
Format settings, Endianness : Big
Codec ID : A_EAC3
Duration : 50 min 8 s
Bit rate mode : Constant
Bit rate : 224 kb/s
Channel(s) : 2 channels
Channel positions : Front: L R
Sampling rate : 48.0 kHz
Frame rate : 187.500 FPS (256 SPF)
Compression mode : Lossy
Stream size : 80.3 MiB (21%)
Language : English
Service kind : Complete Main
Default : Yes
Forced : No

Text #1
ID : 3
Format : UTF-8
Codec ID : S_TEXT/UTF8
Codec ID/Info : UTF-8 Plain Text
Duration : 47 min 14 s
Bit rate : 46 b/s
Count of elements : 596
Stream size : 16.1 KiB (0%)
Language : English
Default : No
Forced : No

Text #2
ID : 4
Format : UTF-8
Codec ID : S_TEXT/UTF8
Codec ID/Info : UTF-8 Plain Text
Duration : 48 min 40 s
Bit rate : 48 b/s
Count of elements : 693
Stream size : 17.4 KiB (0%)
Title : SDH
Language : English
Default : No
Forced : No

Menu
00:00:00.000 : en:Amazon Studios
00:00:05.000 : en:Title Sequence
00:00:55.000 : en:Ed gets ready for the day
00:02:00.000 : en:All in a day's work
00:04:47.000 : en:Ed returns home from work
00:07:52.000 : en:The woman passenger inquires about the train's schedule
00:09:17.000 : en:Ed looks for the woman passenger
00:09:51.000 : en:The issue with Sam
00:13:04.000 : en:Ed investigates the passenger train
00:16:57.000 : en:A slice of divinity
00:18:46.000 : en:Ed watches a familiar face in the park
00:21:16.000 : en:Ed returns to a different home setting
00:24:06.000 : en:Ed speaks to Martine Jenkins
00:28:42.000 : en:Ed visits the town for a second time
00:30:52.000 : en:What could exist
00:36:40.000 : en:Ed returns to the town to desperately find Linda
00:40:09.000 : en:Linda explains to Ed his future
00:46:19.000 : en:Ed returns home once again
00:48:37.000 : en:End Credits





Philip K. Dick's Electric Dreams S01E03


Philip K. Dick's Electric Dreams S01E03


Philip K. Dick's Electric Dreams S01E03


Philip K. Dick's Electric Dreams S01E03


Philip K. Dick's Electric Dreams S01E03

All episodes