Philip K. Dick's Electric Dreams S01E05

Posted By: Tavaz
SD / WEB-DL IMDb
Philip K. Dick's Electric Dreams S01E05

Philip K. Dick's Electric Dreams S01E05
WEB-DL | MKV | 960x540 | English | H264 @ 774 kbps | E-AC-3 @ 224 kbps | 49 min 10 s | 352 MiB
Subtitles: English
Genre: Drama

A diverse anthology of ambitious, moving tales inspired by Philip K Dick's short stories.

f277b969c4fc485895fa74e2362627e1.mkv (351.8 MB)



General
Unique ID : 253862540417389337021447799656542647726 (0xBEFC2596F743DB92777486879B9835AE)
Complete name : ./f277b969c4fc485895fa74e2362627e1.mkv
Format : Matroska
Format version : Version 4 / Version 2
File size : 352 MiB
Duration : 49 min 10 s
Overall bit rate mode : Variable
Overall bit rate : 1 000 kb/s
Encoded date : UTC 2018-01-14 15:20:23
Writing application : mkvmerge v19.0.0 ('Brave Captain') 64-bit
Writing library : libebml v1.3.5 + libmatroska v1.4.8

Video
ID : 1
Format : AVC
Format/Info : Advanced Video Codec
Format profile : High@L3.1
Format settings : CABAC / 5 Ref Frames
Format settings, CABAC : Yes
Format settings, RefFrames : 5 frames
Codec ID : V_MPEG4/ISO/AVC
Duration : 49 min 10 s
Bit rate mode : Variable
Bit rate : 774 kb/s
Maximum bit rate : 2 995 kb/s
Width : 960 pixels
Height : 540 pixels
Display aspect ratio : 16:9
Frame rate mode : Constant
Frame rate : 23.976 (24000/1001) FPS
Color space : YUV
Chroma subsampling : 4:2:0
Bit depth : 8 bits
Scan type : Progressive
Bits/(Pixel*Frame) : 0.062
Stream size : 272 MiB (77%)
Default : Yes
Forced : No
Color range : Limited
Color primaries : BT.709
Transfer characteristics : BT.709
Matrix coefficients : BT.709

Audio
ID : 2
Format : E-AC-3
Format/Info : Enhanced Audio Coding 3
Format settings, Endianness : Big
Codec ID : A_EAC3
Duration : 49 min 10 s
Bit rate mode : Constant
Bit rate : 224 kb/s
Channel(s) : 2 channels
Channel positions : Front: L R
Sampling rate : 48.0 kHz
Frame rate : 187.500 FPS (256 SPF)
Compression mode : Lossy
Stream size : 78.8 MiB (22%)
Language : English
Service kind : Complete Main
Default : Yes
Forced : No

Text #1
ID : 3
Format : UTF-8
Codec ID : S_TEXT/UTF8
Codec ID/Info : UTF-8 Plain Text
Duration : 46 min 4 s
Bit rate : 61 b/s
Count of elements : 737
Stream size : 20.7 KiB (0%)
Language : English
Default : No
Forced : No

Text #2
ID : 4
Format : UTF-8
Codec ID : S_TEXT/UTF8
Codec ID/Info : UTF-8 Plain Text
Duration : 47 min 34 s
Bit rate : 62 b/s
Count of elements : 821
Stream size : 21.9 KiB (0%)
Title : SDH
Language : English
Default : No
Forced : No

Menu
00:00:00.000 : en:Amazon Studios
00:00:05.000 : en:Title Sequence
00:00:55.000 : en:Sarah and Mario eat at a diner
00:02:51.000 : en:Sarah struggles with her past
00:06:15.000 : en:George wakes up after a concussion
00:10:39.000 : en:Paula helps George recover his memory
00:15:28.000 : en:Sarah wakes up from her virtual vacation
00:16:09.000 : en:Mario tries to talk with the distracted Sarah
00:18:09.000 : en:Sarah and her partner head to find Colin
00:20:21.000 : en:The police interrogation
00:22:05.000 : en:George struggles with his memory loss
00:27:44.000 : en:Sarah struggles to find reality
00:33:47.000 : en:Hard to keep a promisse
00:36:16.000 : en:A familiar place to remember things
00:39:27.000 : en:George faces the reality
00:45:57.000 : en:We're all sinners
00:47:39.000 : en:End Credits





Philip K. Dick's Electric Dreams S01E05


Philip K. Dick's Electric Dreams S01E05


Philip K. Dick's Electric Dreams S01E05


Philip K. Dick's Electric Dreams S01E05


Philip K. Dick's Electric Dreams S01E05

All episodes