Philip K. Dick's Electric Dreams S01E05

Posted By: Tavaz
1080p (FullHD) / WEB-DL IMDb
Philip K. Dick's Electric Dreams S01E05

Philip K. Dick's Electric Dreams S01E05
WEB-DL | MKV | 1920x1080 | English | H264 @ 10255 kbps | E-AC-3 @ 640 kbps | 54 min 18 s | 4.13 GiB
Subtitles: English
Genre: Drama

A diverse anthology of ambitious, moving tales inspired by Philip K Dick's short stories.

318c5d94cc0c47de8d1b350a3db5e8b2.mkv (4.1 GB)



General
Unique ID : 16653055701981491301197726978070829339 (0xC874309883CBD81C83A4B985CE0591B)
Complete name : ./318c5d94cc0c47de8d1b350a3db5e8b2.mkv
Format : Matroska
Format version : Version 4 / Version 2
File size : 4.13 GiB
Duration : 54 min 18 s
Overall bit rate mode : Variable
Overall bit rate : 10.9 Mb/s
Encoded date : UTC 2018-01-12 12:56:35
Writing application : mkvmerge v19.0.0 ('Brave Captain') 64-bit
Writing library : libebml v1.3.5 + libmatroska v1.4.8

Video
ID : 1
Format : AVC
Format/Info : Advanced Video Codec
Format profile : High@L4
Format settings : CABAC / 4 Ref Frames
Format settings, CABAC : Yes
Format settings, RefFrames : 4 frames
Codec ID : V_MPEG4/ISO/AVC
Duration : 54 min 18 s
Bit rate mode : Variable
Bit rate : 10.3 Mb/s
Maximum bit rate : 15.0 Mb/s
Width : 1 920 pixels
Height : 1 080 pixels
Display aspect ratio : 16:9
Frame rate mode : Constant
Frame rate : 23.976 (24000/1001) FPS
Color space : YUV
Chroma subsampling : 4:2:0
Bit depth : 8 bits
Scan type : Progressive
Bits/(Pixel*Frame) : 0.206
Stream size : 3.89 GiB (94%)
Default : Yes
Forced : No
Color range : Limited
Color primaries : BT.709
Transfer characteristics : BT.709
Matrix coefficients : BT.709

Audio
ID : 2
Format : E-AC-3
Format/Info : Enhanced Audio Coding 3
Format settings, Endianness : Big
Codec ID : A_EAC3
Duration : 54 min 18 s
Bit rate mode : Constant
Bit rate : 640 kb/s
Channel(s) : 6 channels
Channel positions : Front: L C R, Side: L R, LFE
Sampling rate : 48.0 kHz
Frame rate : 187.500 FPS (256 SPF)
Compression mode : Lossy
Stream size : 249 MiB (6%)
Language : English
Service kind : Complete Main
Default : Yes
Forced : No

Text
ID : 3
Format : UTF-8
Codec ID : S_TEXT/UTF8
Codec ID/Info : UTF-8 Plain Text
Duration : 52 min 48 s
Bit rate : 53 b/s
Count of elements : 811
Stream size : 20.8 KiB (0%)
Language : English
Default : No
Forced : No

Menu
00:00:00.000 : en:Amazon Studios
00:00:05.000 : en:Title Sequence
00:00:54.000 : en:A safe place to be
00:01:40.000 : en:Protesters march against teeps
00:04:24.000 : en:Agent Ross chases the hooded protester
00:05:25.000 : en:A new possibility of investigation
00:08:58.000 : en:Rathbone is interrogated
00:14:06.000 : en:Agent Ross and Honor search a house
00:16:01.000 : en:A painful and restless mind
00:18:44.000 : en:Agent Ross breaks the ice with his partner
00:20:54.000 : en:Ross digs into more information about the hood
00:23:09.000 : en:The hood maker spreads his gifts
00:26:19.000 : en:Agent Ross takes Franklyn into custody
00:28:09.000 : en:The research from Teep Prevention
00:30:04.000 : en:Franklyn follows Mary
00:31:05.000 : en:From chaos to calm
00:36:34.000 : en:Honor tries to read Agent Ross' dream
00:39:37.000 : en:Ross heads to the Union Book Depository
00:42:05.000 : en:The hood maker is revealed
00:48:29.000 : en:Knowing who to trust
00:52:46.000 : en:End Credits





Philip K. Dick's Electric Dreams S01E05


Philip K. Dick's Electric Dreams S01E05


Philip K. Dick's Electric Dreams S01E05


Philip K. Dick's Electric Dreams S01E05


Philip K. Dick's Electric Dreams S01E05

All episodes