Philip K. Dick's Electric Dreams S01E06

Posted By: Tavaz
SD / WEB-DL IMDb
Philip K. Dick's Electric Dreams S01E06

Philip K. Dick's Electric Dreams S01E06
WEB-DL | MKV | 960x540 | English | H264 @ 873 kbps | E-AC-3 @ 224 kbps | 48 min 46 s | 384 MiB
Subtitles: English
Genre: Drama

A diverse anthology of ambitious, moving tales inspired by Philip K Dick's short stories.

25e5663823ef4003bc9e19ff1b9840b1.mkv (383.6 MB)



General
Unique ID : 55369277407735453742399038917034721676 (0x29A7BC24C1BD20FFE86ECB095961418C)
Complete name : ./25e5663823ef4003bc9e19ff1b9840b1.mkv
Format : Matroska
Format version : Version 4 / Version 2
File size : 384 MiB
Duration : 48 min 46 s
Overall bit rate mode : Variable
Overall bit rate : 1 100 kb/s
Encoded date : UTC 2018-01-14 15:21:31
Writing application : mkvmerge v19.0.0 ('Brave Captain') 64-bit
Writing library : libebml v1.3.5 + libmatroska v1.4.8

Video
ID : 1
Format : AVC
Format/Info : Advanced Video Codec
Format profile : High@L3.1
Format settings : CABAC / 5 Ref Frames
Format settings, CABAC : Yes
Format settings, RefFrames : 5 frames
Codec ID : V_MPEG4/ISO/AVC
Duration : 48 min 46 s
Bit rate mode : Variable
Bit rate : 874 kb/s
Maximum bit rate : 2 995 kb/s
Width : 960 pixels
Height : 540 pixels
Display aspect ratio : 16:9
Frame rate mode : Constant
Frame rate : 23.976 (24000/1001) FPS
Color space : YUV
Chroma subsampling : 4:2:0
Bit depth : 8 bits
Scan type : Progressive
Bits/(Pixel*Frame) : 0.070
Stream size : 305 MiB (79%)
Default : Yes
Forced : No
Color range : Limited
Color primaries : BT.709
Transfer characteristics : BT.709
Matrix coefficients : BT.709

Audio
ID : 2
Format : E-AC-3
Format/Info : Enhanced Audio Coding 3
Format settings, Endianness : Big
Codec ID : A_EAC3
Duration : 48 min 46 s
Bit rate mode : Constant
Bit rate : 224 kb/s
Channel(s) : 2 channels
Channel positions : Front: L R
Sampling rate : 48.0 kHz
Frame rate : 187.500 FPS (256 SPF)
Compression mode : Lossy
Stream size : 78.1 MiB (20%)
Language : English
Service kind : Complete Main
Default : Yes
Forced : No

Text #1
ID : 3
Format : UTF-8
Codec ID : S_TEXT/UTF8
Codec ID/Info : UTF-8 Plain Text
Duration : 47 min 20 s
Bit rate : 40 b/s
Count of elements : 520
Stream size : 14.1 KiB (0%)
Language : English
Default : No
Forced : No

Text #2
ID : 4
Format : UTF-8
Codec ID : S_TEXT/UTF8
Codec ID/Info : UTF-8 Plain Text
Duration : 48 min 10 s
Bit rate : 43 b/s
Count of elements : 615
Stream size : 15.2 KiB (0%)
Title : SDH
Language : English
Default : No
Forced : No

Menu
00:00:00.000 : en:Amazon Studios
00:00:05.000 : en:Title Sequence
00:00:54.000 : en:Silas gives a speech after receiving an award
00:04:36.000 : en:General Olin calls an emergency meeting
00:08:07.000 : en:A little break from the loveless marriage
00:12:20.000 : en:Vera exercises before going to work
00:13:25.000 : en:Silas and his crew take off to the space mission
00:14:43.000 : en:Vera responds to Silas' crew being in danger
00:16:42.000 : en:Vera feels guilty about the failed mission
00:18:27.000 : en:Vera receives unexpected news about the ship's arrival
00:19:36.000 : en:Vera takes care of Silas
00:22:38.000 : en:Silas gets better
00:24:02.000 : en:A new element of the attack on Rexor IV
00:24:58.000 : en:Vera deals with a different Silas
00:29:23.000 : en:Yaro warns Vera about the Rexorians
00:30:29.000 : en:Vera adjusts to a more empathetic Silas
00:34:28.000 : en:Vera watches Private Matthews' interrogation
00:35:35.000 : en:Silas is interrogated
00:37:31.000 : en:The state tries Silas
00:45:40.000 : en:Coming to terms after the trial
00:47:15.000 : en:End Credits





Philip K. Dick's Electric Dreams S01E06


Philip K. Dick's Electric Dreams S01E06


Philip K. Dick's Electric Dreams S01E06


Philip K. Dick's Electric Dreams S01E06


Philip K. Dick's Electric Dreams S01E06

All episodes