Featured TV Shows


Rick and Morty S04E01

Posted By: Tavaz
1080p (FullHD) / WEB-DL IMDb
Rick and Morty S04E01

Rick and Morty S04E01
WEB-DL | MOV | 1920x1080 | English / English | H264 @ 5335 kbps | AAC @ 124 kbps | 22 min 31 s | 942 MiB
Subtitles: English
Genre: Animation, Comedy


Rick is a mentally-unbalanced but scientifically-gifted old man who has recently reconnected with his family. He spends most of his time involving his young grandson Morty in dangerous, outlandish adventures throughout space and alternate universes. Compounded with Morty's already unstable family life, these events cause Morty much distress at home and school.

0474112cc42e4aa5909566bfa37e9ae4.mp4 (942.5 MB)



General
Complete name : ./0474112cc42e4aa5909566bfa37e9ae4.mp4
Format : MPEG-4
Format profile : Base Media / Version 2
Codec ID : mp42 (mp42/isom)
File size : 942 MiB
Duration : 22 min 31 s
Overall bit rate mode : Variable
Overall bit rate : 5 848 kb/s
Collection : Rick and Morty
Season : 4
Album : Rick and Morty, Season 4 (Uncensored)
Album/Sorted by : Rick and Morty, Season 4 (Uncensored)
Album/Performer : Rick and Morty
Part : 1
Part/Position : 1
Part/Total : 1
Track name : Edge of Tomorty: Rick Die Rickpeat
Track name/Position : 1
Track name/Total : 6
Performer : Rick and Morty
Performer/Sorted by : Rick and Morty
Genre : Comedy
ContentType : TV Show
Description : Morty goes nuts this time dawg. Rick does stuff. Season 4 premiere broh / You paid for 10 episodes, chill broh. / / Buckle in for disappointment because there’s no way these episodes will be good enough for how long you waited. But maybe they will be? It’s season four! It’s sexy and smooth. Buckle in! Did I already say that? Definitely stay buckled in.
Recorded date : UTC 2019-11-10 08:00:00
Encoded date : UTC 2019-11-18 16:03:18
Tagged date : UTC 2019-11-18 16:03:52
Copyright : TM & © 2019 Turner Broadcasting System, Inc. A WarnerMedia Company. All Rights Reserved.
Cover : Yes
Rating : None
AppleStoreAccount :
ownr :
AppleStoreCatalogID : 1487237765
AlbumTitleID : 741096884
PlayListID : 1481634279
GenreID : 4000
AppleStoreCountry : United States
Part_ID : 404
PurchaseDate : 2019-11-18 13:22:07
Title/Sort : Edge of Tomorty: Rick Die Rickpeat
Vendor : Turner:vendor_id:TURNER_RICKANDMORTY_404
Flavour : 18:1080p
ContentRating : us-tv|TV-MA|600|
LongDescription : Morty goes nuts this time dawg. Rick does stuff. Season 4 premiere broh.

Video
ID : 2
Format : AVC
Format/Info : Advanced Video Codec
Format profile : High@L4
Format settings : CABAC / 4 Ref Frames
Format settings, CABAC : Yes
Format settings, RefFrames : 4 frames
Codec ID : avc1
Codec ID/Info : Advanced Video Coding
Duration : 22 min 31 s
Bit rate : 5 335 kb/s
Width : 1 920 pixels
Height : 1 080 pixels
Display aspect ratio : 16:9
Frame rate mode : Constant
Frame rate : 23.976 (24000/1001) FPS
Color space : YUV
Chroma subsampling : 4:2:0
Bit depth : 8 bits
Scan type : Progressive
Bits/(Pixel*Frame) : 0.107
Stream size : 860 MiB (91%)
Language : English
Encoded date : UTC 2019-11-18 16:03:18
Tagged date : UTC 2019-11-18 16:03:52
Color range : Limited
Color primaries : BT.709
Transfer characteristics : BT.709
Matrix coefficients : BT.709

Audio #1
ID : 1
Format : AAC
Format/Info : Advanced Audio Codec
Format profile : LC
Codec ID : mp4a-40-2
Duration : 22 min 31 s
Bit rate mode : Variable
Bit rate : 125 kb/s
Maximum bit rate : 223 kb/s
Channel(s) : 2 channels
Channel positions : Front: L R
Sampling rate : 48.0 kHz
Frame rate : 46.875 FPS (1024 SPF)
Compression mode : Lossy
Stream size : 20.1 MiB (2%)
Language : English
Default : Yes
Alternate group : 1
Encoded date : UTC 2019-11-18 16:03:18
Tagged date : UTC 2019-11-18 16:03:52

Audio #2
ID : 3
Format : AC-3
Format/Info : Audio Coding 3
Format settings, Endianness : Big
Codec ID : ac-3
Duration : 22 min 31 s
Bit rate mode : Constant
Bit rate : 384 kb/s
Channel(s) : 6 channels
Channel positions : Front: L C R, Side: L R, LFE
Sampling rate : 48.0 kHz
Frame rate : 31.250 FPS (1536 SPF)
Bit depth : 16 bits
Compression mode : Lossy
Stream size : 61.9 MiB (7%)
Language : English
Service kind : Complete Main
Default : No
Alternate group : 1
Encoded date : UTC 2019-11-18 16:03:18
Tagged date : UTC 2019-11-18 16:03:52

Text
ID : 4-CC1
Format : EIA-608
Muxing mode : Final Cut
Codec ID : c608
Duration : 22 min 30 s
Bit rate mode : Constant
Stream size : 0.00 Byte (0%)
Language : English
Forced : No
Encoded date : UTC 2019-11-18 16:03:18
Tagged date : UTC 2019-11-18 16:03:19
CaptionServiceName : CC1





Rick and Morty S04E01


Rick and Morty S04E01


Rick and Morty S04E01


Rick and Morty S04E01


Rick and Morty S04E01

All episodes