Featured TV Shows


Rick and Morty S04E04

Posted By: Tavaz
1080p (FullHD) / WEBRip IMDb
Rick and Morty S04E04

Rick and Morty S04E04
WEBRip | MKV | 1920x1080 | Français / English | H264 @ 3226 kbps | AAC @ 132 kbps | 21 min 41 s | 541 MiB
Subtitles: Français
Genre: Animation, Comedy


Rick is a mentally-unbalanced but scientifically-gifted old man who has recently reconnected with his family. He spends most of his time involving his young grandson Morty in dangerous, outlandish adventures throughout space and alternate universes. Compounded with Morty's already unstable family life, these events cause Morty much distress at home and school.

ca79e5a33ebc4052a83bc7a20e77172d.mkv (541.3 MB)



General
Unique ID : 93785557820152105306714367438647079588 (0x468E71009E5CD03992ABA3A2E8D232A4)
Complete name : ./ca79e5a33ebc4052a83bc7a20e77172d.mkv
Format : Matroska
Format version : Version 4 / Version 2
File size : 541 MiB
Duration : 21 min 41 s
Overall bit rate : 3 490 kb/s
Encoded date : UTC 2020-03-05 23:09:18
Writing application : mkvmerge v43.0.0 ('The Quartermaster') 64-bit
Writing library : libebml v1.3.10 + libmatroska v1.5.2

Video
ID : 1
Format : AVC
Format/Info : Advanced Video Codec
Format profile : High@L4
Format settings : CABAC / 4 Ref Frames
Format settings, CABAC : Yes
Format settings, RefFrames : 4 frames
Codec ID : V_MPEG4/ISO/AVC
Duration : 21 min 41 s
Bit rate : 3 226 kb/s
Width : 1 920 pixels
Height : 1 080 pixels
Display aspect ratio : 16:9
Frame rate mode : Constant
Frame rate : 25.000 FPS
Color space : YUV
Chroma subsampling : 4:2:0
Bit depth : 8 bits
Scan type : Progressive
Bits/(Pixel*Frame) : 0.062
Stream size : 500 MiB (92%)
Default : Yes
Forced : No

Audio #1
ID : 2
Format : AAC
Format/Info : Advanced Audio Codec
Format profile : LC
Codec ID : A_AAC-2
Duration : 21 min 41 s
Bit rate : 132 kb/s
Channel(s) : 2 channels
Channel positions : Front: L R
Sampling rate : 48.0 kHz
Frame rate : 46.875 FPS (1024 SPF)
Compression mode : Lossy
Stream size : 20.2 MiB (4%)
Title : French
Language : French
Default : Yes
Forced : No

Audio #2
ID : 3
Format : AAC
Format/Info : Advanced Audio Codec
Format profile : LC
Codec ID : A_AAC-2
Duration : 21 min 41 s
Bit rate : 132 kb/s
Channel(s) : 2 channels
Channel positions : Front: L R
Sampling rate : 48.0 kHz
Frame rate : 46.875 FPS (1024 SPF)
Compression mode : Lossy
Stream size : 20.2 MiB (4%)
Title : English
Language : English
Default : No
Forced : No

Text
ID : 4
Format : UTF-8
Codec ID : S_TEXT/UTF8
Codec ID/Info : UTF-8 Plain Text
Duration : 21 min 35 s
Bit rate : 84 b/s
Count of elements : 444
Stream size : 13.4 KiB (0%)
Title : French
Language : French
Default : No
Forced : No





Rick and Morty S04E04


Rick and Morty S04E04


Rick and Morty S04E04


Rick and Morty S04E04


Rick and Morty S04E04

All episodes