Featured TV Shows


Rick and Morty S04E05

Posted By: Tavaz
1080p (FullHD) / WEBRip IMDb
Rick and Morty S04E05

Rick and Morty S04E05
WEBRip | MKV | 1920x1080 | English | H264 @ 4220 kbps | AAC @ 125 kbps | 21 min 41 s | 675 MiB
Subtitles: English
Genre: Animation, Comedy


Rick is a mentally-unbalanced but scientifically-gifted old man who has recently reconnected with his family. He spends most of his time involving his young grandson Morty in dangerous, outlandish adventures throughout space and alternate universes. Compounded with Morty's already unstable family life, these events cause Morty much distress at home and school.

c7f06f475b224965804fc211895f40f3.mkv (674.9 MB)



General
Unique ID : 323386015891117335924132356372708326454 (0xF349E193B4F9946A58D4F35DC059FC36)
Complete name : ./c7f06f475b224965804fc211895f40f3.mkv
Format : Matroska
Format version : Version 4 / Version 2
File size : 675 MiB
Duration : 21 min 41 s
Overall bit rate : 4 349 kb/s
Encoded date : UTC 2019-12-16 05:20:42
Writing application : mkvmerge v21.0.0 ('Tardigrades Will Inherit The Earth') 64-bit
Writing library : libebml v1.3.5 + libmatroska v1.4.8

Video
ID : 1
Format : AVC
Format/Info : Advanced Video Codec
Format profile : High@L4.1
Format settings : CABAC / 5 Ref Frames
Format settings, CABAC : Yes
Format settings, RefFrames : 5 frames
Codec ID : V_MPEG4/ISO/AVC
Duration : 21 min 41 s
Bit rate : 4 221 kb/s
Width : 1 920 pixels
Height : 1 080 pixels
Display aspect ratio : 16:9
Frame rate mode : Constant
Frame rate : 23.976 (24000/1001) FPS
Color space : YUV
Chroma subsampling : 4:2:0
Bit depth : 8 bits
Scan type : Progressive
Bits/(Pixel*Frame) : 0.085
Stream size : 655 MiB (97%)
Writing library : x264 core 157 r2969 d4099dd
Encoding settings : cabac=1 / ref=5 / deblock=1:-3:-3 / analyse=0x3:0x113 / me=hex / subme=8 / psy=1 / psy_rd=1.00:0.15 / mixed_ref=1 / me_range=16 / chroma_me=1 / trellis=2 / 8x8dct=1 / cqm=0 / deadzone=21,11 / fast_pskip=1 / chroma_qp_offset=-3 / threads=34 / lookahead_threads=5 / sliced_threads=0 / nr=0 / decimate=1 / interlaced=0 / bluray_compat=0 / constrained_intra=0 / bframes=3 / b_pyramid=2 / b_adapt=2 / b_bias=0 / direct=3 / weightb=1 / open_gop=0 / weightp=2 / keyint=250 / keyint_min=23 / scenecut=40 / intra_refresh=0 / rc_lookahead=50 / rc=crf / mbtree=1 / crf=17.0 / qcomp=0.60 / qpmin=0 / qpmax=69 / qpstep=4 / ip_ratio=1.40 / aq=1:1.00
Language : English
Default : Yes
Forced : No
Color range : Limited
Matrix coefficients : BT.709

Audio
ID : 2
Format : AAC
Format/Info : Advanced Audio Codec
Format profile : LC
Codec ID : A_AAC-2
Duration : 21 min 41 s
Bit rate : 126 kb/s
Channel(s) : 2 channels
Channel positions : Front: L R
Sampling rate : 44.1 kHz
Frame rate : 43.066 FPS (1024 SPF)
Compression mode : Lossy
Stream size : 19.5 MiB (3%)
Language : English
Default : Yes
Forced : No

Text
ID : 3
Format : UTF-8
Codec ID : S_TEXT/UTF8
Codec ID/Info : UTF-8 Plain Text
Duration : 21 min 36 s
Bit rate : 137 b/s
Count of elements : 493
Stream size : 21.7 KiB (0%)
Language : English
Default : No
Forced : No





Rick and Morty S04E05


Rick and Morty S04E05


Rick and Morty S04E05


Rick and Morty S04E05


Rick and Morty S04E05

All episodes