Index
# A B C D E F G H I J K L M N O P Q R S T U V W Y Z
Tags
Language
Tags

Featured TV Shows


See S01E01

Posted By: Tavaz
1080p (FullHD) / WEBRip IMDb
See S01E01

See S01E01
WEBRip | MKV | 1920x1080 | Français / English | H264 @ 2938 kbps | E-AC-3 @ 640 kbps | 28 min 11 s | 868 MiB
Subtitles: Italiano, Español, Français, English, Deutsch
Genre: Drama


A virus has decimated humankind. Those who survived emerged blind. Centuries later when twins are born with the mythic ability to see, their father must protect his tribe against a threatened queen.

84ef02ebd9da454bbb3d25596995546e.mkv (867.7 MB)



General
Unique ID : 28489286121586515807539213735687010448 (0x156ED6409FA4677AE8BFFDB65FBEB890)
Complete name : ./84ef02ebd9da454bbb3d25596995546e.mkv
Format : Matroska
Format version : Version 4 / Version 2
File size : 868 MiB
Duration : 28 min 11 s
Overall bit rate mode : Variable
Overall bit rate : 4 304 kb/s
Writing application : Lavf58.18.101
Writing library : Lavf58.18.101
ErrorDetectionType : Per level 1

Video
ID : 1
Format : AVC
Format/Info : Advanced Video Codec
Format profile : Main@L4
Format settings : CABAC / 1 Ref Frames
Format settings, CABAC : Yes
Format settings, RefFrames : 1 frame
Codec ID : V_MPEG4/ISO/AVC
Duration : 28 min 11 s
Bit rate mode : Variable
Bit rate : 2 938 kb/s
Maximum bit rate : 6 000 kb/s
Width : 1 920 pixels
Height : 1 080 pixels
Display aspect ratio : 16:9
Frame rate mode : Constant
Frame rate : 23.976 (24000/1001) FPS
Original frame rate : 29.970 (30000/1001) FPS
Color space : YUV
Chroma subsampling : 4:2:0
Bit depth : 8 bits
Scan type : Progressive
Bits/(Pixel*Frame) : 0.059
Stream size : 592 MiB (68%)
Default : No
Forced : No

Audio #1
ID : 2
Format : E-AC-3
Format/Info : Enhanced Audio Coding 3
Format settings, Endianness : Big
Codec ID : A_EAC3
Duration : 28 min 11 s
Bit rate mode : Constant
Bit rate : 640 kb/s
Channel(s) : 6 channels
Channel positions : Front: L C R, Side: L R, LFE
Sampling rate : 48.0 kHz
Frame rate : 187.500 FPS (256 SPF)
Bit depth : 32 bits
Compression mode : Lossy
Delay relative to video : -83 ms
Stream size : 129 MiB (15%)
Title : anglais [VO] - Dolby
Language : English
Service kind : Complete Main
Default : Yes
Forced : No

Audio #2
ID : 3
Format : E-AC-3
Format/Info : Enhanced Audio Coding 3
Format settings, Endianness : Big
Codec ID : A_EAC3
Duration : 28 min 11 s
Bit rate mode : Constant
Bit rate : 640 kb/s
Channel(s) : 6 channels
Channel positions : Front: L C R, Side: L R, LFE
Sampling rate : 48.0 kHz
Frame rate : 187.500 FPS (256 SPF)
Bit depth : 32 bits
Compression mode : Lossy
Delay relative to video : -83 ms
Stream size : 129 MiB (15%)
Title : français - Dolby
Language : French
Service kind : Complete Main
Default : No
Forced : No

Text #1
ID : 4
Format : ASS
Codec ID : S_TEXT/ASS
Codec ID/Info : Advanced Sub Station Alpha
Duration : 24 min 32 s
Compression mode : Lossless
Title : German
Language : German
Default : No
Forced : No

Text #2
ID : 5
Format : ASS
Codec ID : S_TEXT/ASS
Codec ID/Info : Advanced Sub Station Alpha
Duration : 24 min 32 s
Compression mode : Lossless
Title : German (Forced Narrative)
Language : German
Default : No
Forced : No

Text #3
ID : 6
Format : ASS
Codec ID : S_TEXT/ASS
Codec ID/Info : Advanced Sub Station Alpha
Duration : 24 min 37 s
Compression mode : Lossless
Title : Spanish
Language : Spanish
Default : No
Forced : No

Text #4
ID : 7
Format : ASS
Codec ID : S_TEXT/ASS
Codec ID/Info : Advanced Sub Station Alpha
Duration : 8 s 883 ms
Compression mode : Lossless
Title : Spanish (Forced Narrative)
Language : Spanish
Default : No
Forced : No

Text #5
ID : 8
Format : ASS
Codec ID : S_TEXT/ASS
Codec ID/Info : Advanced Sub Station Alpha
Duration : 24 min 38 s
Compression mode : Lossless
Title : French
Language : French
Default : No
Forced : No

Text #6
ID : 9
Format : ASS
Codec ID : S_TEXT/ASS
Codec ID/Info : Advanced Sub Station Alpha
Duration : 8 s 842 ms
Compression mode : Lossless
Title : French (Forced Narrative)
Language : French
Default : No
Forced : No

Text #7
ID : 10
Format : ASS
Codec ID : S_TEXT/ASS
Codec ID/Info : Advanced Sub Station Alpha
Duration : 24 min 36 s
Compression mode : Lossless
Title : Italian
Language : Italian
Default : No
Forced : No

Text #8
ID : 11
Format : ASS
Codec ID : S_TEXT/ASS
Codec ID/Info : Advanced Sub Station Alpha
Duration : 24 min 36 s
Compression mode : Lossless
Title : Italian (Forced Narrative)
Language : Italian
Default : No
Forced : No

Text #9
ID : 12
Format : ASS
Codec ID : S_TEXT/ASS
Codec ID/Info : Advanced Sub Station Alpha
Duration : 24 min 33 s
Compression mode : Lossless
Title : English (CC)
Language : English
Default : No
Forced : No





See S01E01


See S01E01


See S01E01


See S01E01


See S01E01

All episodes