Featured TV Shows


Atlanta S01E06

Posted By: Tavaz
720p (HD) / WEB-DL IMDb
Atlanta S01E06

Atlanta S01E06
WEB-DL | MKV | 1280x720 | English | H264 @ 1996 kbps | AAC @ 192 kbps | 21 min 33 s | 338 MiB
Genre: Comedy

Two cousins, with different views on art versus commerce, on their way up through the Atlanta rap scene; Earnest 'Earn' Marks, an ambitious college dropout and his estranged cousin, who suddenly becomes a star.

Say.Yes.To.The.Dress.Atlanta.S01E06.Heads.Or.Tails.720p.9NOW.WEB-DL.AAC2.0.x264-RTN.mkv (337.7 MB)



General
Unique ID : 138620511357559023546872376507995090236 (0x684956E125C79A5ECF470701B8196D3C)
Complete name : ./Say.Yes.To.The.Dress.Atlanta.S01E06.Heads.Or.Tails.720p.9NOW.WEB-DL.AAC2.0.x264-RTN.mkv
Format : Matroska
Format version : Version 4 / Version 2
File size : 338 MiB
Duration : 21 min 33 s
Overall bit rate : 2 191 kb/s
Encoded date : UTC 2018-07-08 14:15:59
Writing application : mkvmerge v24.0.0 ('Beyond The Pale') 64-bit
Writing library : libebml v1.3.6 + libmatroska v1.4.9

Video
ID : 1
Format : AVC
Format/Info : Advanced Video Codec
Format profile : Main@L3.1
Format settings : CABAC / 4 Ref Frames
Format settings, CABAC : Yes
Format settings, RefFrames : 4 frames
Codec ID : V_MPEG4/ISO/AVC
Duration : 21 min 32 s
Bit rate : 1 997 kb/s
Width : 1 280 pixels
Height : 720 pixels
Display aspect ratio : 16:9
Frame rate mode : Constant
Frame rate : 25.000 FPS
Color space : YUV
Chroma subsampling : 4:2:0
Bit depth : 8 bits
Scan type : Progressive
Bits/(Pixel*Frame) : 0.087
Stream size : 308 MiB (91%)
Writing library : Zencoder Video Encoding System
Default : Yes
Forced : No
Color range : Limited
Color primaries : BT.709
Transfer characteristics : BT.709
Matrix coefficients : BT.709

Audio
ID : 2
Format : AAC
Format/Info : Advanced Audio Codec
Format profile : LC
Codec ID : A_AAC-2
Duration : 21 min 33 s
Bit rate : 192 kb/s
Channel(s) : 2 channels
Channel positions : Front: L R
Sampling rate : 48.0 kHz
Frame rate : 46.875 FPS (1024 SPF)
Compression mode : Lossy
Stream size : 29.6 MiB (9%)
Language : English
Default : Yes
Forced : No





Atlanta S01E06


Atlanta S01E06


Atlanta S01E06


Atlanta S01E06


Atlanta S01E06

All episodes