Featured TV Shows


Atlanta S06E17

Posted By: Tavaz
720p (HD) / WEB-DL IMDb
Atlanta S06E17

Atlanta S06E17
WEB-DL | MKV | 1280x720 | English | H264 @ 1997 kbps | AAC @ 192 kbps | 20 min 59 s | 329 MiB
Genre: Comedy

Two cousins, with different views on art versus commerce, on their way up through the Atlanta rap scene; Earnest 'Earn' Marks, an ambitious college dropout and his estranged cousin, who suddenly becomes a star.

Say.Yes.To.The.Dress.Atlanta.S06E17.Up.The.Aunt-ie.720p.9NOW.WEB-DL.AAC2.0.x264-RTN.mkv (329.2 MB)



General
Unique ID : 324837285676136963502673462383006081222 (0xF46162B3A5F1D0EA4A27E6E436A260C6)
Complete name : ./Say.Yes.To.The.Dress.Atlanta.S06E17.Up.The.Aunt-ie.720p.9NOW.WEB-DL.AAC2.0.x264-RTN.mkv
Format : Matroska
Format version : Version 4 / Version 2
File size : 329 MiB
Duration : 20 min 59 s
Overall bit rate : 2 192 kb/s
Encoded date : UTC 2018-07-08 14:21:58
Writing application : mkvmerge v24.0.0 ('Beyond The Pale') 64-bit
Writing library : libebml v1.3.6 + libmatroska v1.4.9

Video
ID : 1
Format : AVC
Format/Info : Advanced Video Codec
Format profile : Main@L3.1
Format settings : CABAC / 4 Ref Frames
Format settings, CABAC : Yes
Format settings, RefFrames : 4 frames
Codec ID : V_MPEG4/ISO/AVC
Duration : 20 min 59 s
Bit rate : 1 998 kb/s
Width : 1 280 pixels
Height : 720 pixels
Display aspect ratio : 16:9
Frame rate mode : Constant
Frame rate : 25.000 FPS
Color space : YUV
Chroma subsampling : 4:2:0
Bit depth : 8 bits
Scan type : Progressive
Bits/(Pixel*Frame) : 0.087
Stream size : 300 MiB (91%)
Writing library : Zencoder Video Encoding System
Default : Yes
Forced : No

Audio
ID : 2
Format : AAC
Format/Info : Advanced Audio Codec
Format profile : LC
Codec ID : A_AAC-2
Duration : 20 min 59 s
Bit rate : 192 kb/s
Channel(s) : 2 channels
Channel positions : Front: L R
Sampling rate : 44.1 kHz
Frame rate : 43.066 FPS (1024 SPF)
Compression mode : Lossy
Stream size : 28.8 MiB (9%)
Language : English
Default : Yes
Forced : No





Atlanta S06E17


Atlanta S06E17


Atlanta S06E17


Atlanta S06E17


Atlanta S06E17

All episodes