Star Trek: Discovery S01E15

Posted By: Tavaz
1080p (FullHD) / WEB-DL IMDb
Star Trek: Discovery S01E15

Star Trek: Discovery S01E15
WEB-DL | MKV | 1920x1080 | Italian | H264 @ 3160 kbps | AC-3 @ 384 kbps | 45 min 49 s | 1.11 GiB
Subtitles: Italian

Star Trek: Discovery è una serie televisiva statunitense di fantascienza ideata da Bryan Fuller e Alex Kurtzman per CBS All Access. Si tratta della prima serie del franchise di Star Trek dopo la conclusione di Star Trek: Enterprise nel 2005. Ambientata dieci anni prima gli eventi della serie originale di Star Trek, Discovery segue le avventure della nave stellare USS Discovery nel suo viaggio attraverso lo spazio alla ricerca di nuovi mondi e nuove civiltà. Gretchen J. Berg e Aaron Harberts sono gli showrunner della serie, con il supporto di Akiva Goldsman.

Star.Trek.Discovery.1x15.Mi.Prenderai.Per.Mano.ITA.1080p.WEBMux.DD5.1.x264-NovaRip.mkv (1.1 GB)



General
Unique ID : 8641775051900604221374617867946432036 (0x6805867D7B09D448416CD26104A1624)
Complete name : ./Star.Trek.Discovery.1x15.Mi.Prenderai.Per.Mano.ITA.1080p.WEBMux.DD5.1.x264-NovaRip.mkv
Format : Matroska
Format version : Version 2
File size : 1.11 GiB
Duration : 45 min 49 s
Overall bit rate mode : Variable
Overall bit rate : 3 455 kb/s
Encoded date : UTC 2018-02-12 21:47:11
Writing application : mkvmerge v8.5.2 ('Crosses') 64bit
Writing library : libebml v1.3.3 + libmatroska v1.4.4

Video
ID : 1
Format : AVC
Format/Info : Advanced Video Codec
Format profile : Main@L4
Format settings : CABAC / 3 Ref Frames
Format settings, CABAC : Yes
Format settings, RefFrames : 3 frames
Codec ID : V_MPEG4/ISO/AVC
Duration : 45 min 49 s
Bit rate mode : Variable
Bit rate : 3 160 kb/s
Maximum bit rate : 4 740 kb/s
Width : 1 920 pixels
Height : 1 080 pixels
Display aspect ratio : 16:9
Frame rate mode : Constant
Frame rate : 23.976 (24000/1001) FPS
Color space : YUV
Chroma subsampling : 4:2:0
Bit depth : 8 bits
Scan type : Progressive
Bits/(Pixel*Frame) : 0.064
Stream size : 1 006 MiB (89%)
Writing library : x264 core 148 r2715 7e75228
Encoding settings : cabac=1 / ref=3 / deblock=1:0:0 / analyse=0x1:0x111 / me=umh / subme=10 / psy=1 / psy_rd=1.00:0.00 / mixed_ref=1 / me_range=24 / chroma_me=1 / trellis=2 / 8x8dct=0 / cqm=0 / deadzone=21,11 / fast_pskip=1 / chroma_qp_offset=-2 / threads=8 / lookahead_threads=1 / sliced_threads=0 / nr=0 / decimate=1 / interlaced=0 / bluray_compat=0 / stitchable=1 / constrained_intra=0 / bframes=2 / b_pyramid=0 / b_adapt=2 / b_bias=0 / direct=3 / weightb=1 / open_gop=0 / weightp=2 / keyint=48 / keyint_min=25 / scenecut=0 / intra_refresh=0 / rc_lookahead=48 / rc=2pass / mbtree=1 / bitrate=3160 / ratetol=1.0 / qcomp=0.50 / qpmin=6 / qpmax=51 / qpstep=4 / cplxblur=20.0 / qblur=0.5 / vbv_maxrate=4740 / vbv_bufsize=6320 / nal_hrd=vbr / filler=0 / ip_ratio=1.40 / aq=1:1.00
Language : English
Default : Yes
Forced : Yes

Audio
ID : 2
Format : AC-3
Format/Info : Audio Coding 3
Format settings, Endianness : Big
Codec ID : A_AC3
Duration : 45 min 49 s
Bit rate mode : Constant
Bit rate : 384 kb/s
Channel(s) : 6 channels
Channel positions : Front: L C R, Side: L R, LFE
Sampling rate : 48.0 kHz
Frame rate : 31.250 FPS (1536 SPF)
Bit depth : 16 bits
Compression mode : Lossy
Stream size : 126 MiB (11%)
Title : ITA
Language : Italian
Service kind : Complete Main
Default : Yes
Forced : Yes

Text
ID : 3
Format : UTF-8
Codec ID : S_TEXT/UTF8
Codec ID/Info : UTF-8 Plain Text
Duration : 45 min 9 s
Bit rate : 3 b/s
Count of elements : 40
Stream size : 1.24 KiB (0%)
Title : ITA - Forced
Language : Italian
Default : Yes
Forced : Yes





Star Trek: Discovery S01E15


Star Trek: Discovery S01E15


Star Trek: Discovery S01E15


Star Trek: Discovery S01E15


Star Trek: Discovery S01E15

All episodes