Index
# A B C D E F G H I J K L M N O P Q R S T U V W Y Z
Tags
Language
Tags

Featured TV Shows


Star Trek: Discovery S03E01

Posted By: Tavaz
1080p (FullHD) / WEBRip IMDb
Star Trek: Discovery S03E01

Star Trek: Discovery S03E01
WEBRip | MOV | 1440x1080 | English / Español / Français / Italiano / Deutsch | H264 @ 4082 kbps | AAC @ 127 kbps | 50 min 45 s | 1.90 GiB
Subtitles: Italiano, Español, Français, English, Deutsch


Follow the voyages of Starfleet on their missions to discover new worlds and new life forms, and one Starfleet officer who must learn that to truly understand all things alien, you must first understand yourself.

098b2ec57b8d426ea5d865b525d802ee.mkv (1.9 GB)



General
Complete name : ./098b2ec57b8d426ea5d865b525d802ee.mkv
Format : MPEG-4
Format profile : Base Media
Codec ID : isom (isom/iso2/avc1/mp41)
File size : 1.90 GiB
Duration : 50 min 45 s
Overall bit rate mode : Variable
Overall bit rate : 5 366 kb/s
Cover : Yes
FileExtension_Invalid : mov mp4 m4v m4a m4b m4p 3ga 3gpa 3gpp 3gp 3gpp2 3g2 k3g jpm jpx mqv ismv isma ismt f4a f4b f4v

Video
ID : 7
Format : AVC
Format/Info : Advanced Video Codec
Format profile : Main@L4
Format settings : CABAC / 1 Ref Frames
Format settings, CABAC : Yes
Format settings, RefFrames : 1 frame
Codec ID : avc1
Codec ID/Info : Advanced Video Coding
Duration : 50 min 43 s
Bit rate mode : Variable
Bit rate : 4 082 kb/s
Maximum bit rate : 6 000 kb/s
Width : 1 440 pixels
Height : 1 080 pixels
Display aspect ratio : 4:3
Frame rate mode : Constant
Frame rate : 23.976 FPS
Original frame rate : 29.970 (30000/1001) FPS
Color space : YUV
Chroma subsampling : 4:2:0
Bit depth : 8 bits
Scan type : Progressive
Bits/(Pixel*Frame) : 0.109
Stream size : 1.45 GiB (76%)
Default : Yes
Alternate group : 6

Audio #1
ID : 1
Format : AAC
Format/Info : Advanced Audio Codec
Format profile : HE-AAC / LC
Format settings : Explicit
Codec ID : mp4a-40-2
Duration : 50 min 45 s
Bit rate mode : Constant
Bit rate : 128 kb/s
Channel(s) : 2 channels
Channel positions : Front: L R
Sampling rate : 48.0 kHz / 24.0 kHz
Frame rate : 23.438 FPS (1024 SPF)
Compression mode : Lossy
Stream size : 46.5 MiB (2%)
Title : allemand
Language : German

Audio #2
ID : 2
Format : AAC
Format/Info : Advanced Audio Codec
Format profile : HE-AAC / LC
Format settings : Explicit
Codec ID : mp4a-40-2
Duration : 50 min 45 s
Bit rate mode : Constant
Bit rate : 128 kb/s
Channel(s) : 2 channels
Channel positions : Front: L R
Sampling rate : 48.0 kHz / 24.0 kHz
Frame rate : 23.438 FPS (1024 SPF)
Compression mode : Lossy
Stream size : 46.5 MiB (2%)
Title : anglais [VO]
Language : English
Default : Yes
Alternate group : 1

Audio #3
ID : 3
Format : AAC
Format/Info : Advanced Audio Codec
Format profile : HE-AAC / LC
Format settings : Explicit
Codec ID : mp4a-40-2
Duration : 50 min 45 s
Bit rate mode : Constant
Bit rate : 128 kb/s
Channel(s) : 2 channels
Channel positions : Front: L R
Sampling rate : 48.0 kHz / 24.0 kHz
Frame rate : 23.438 FPS (1024 SPF)
Compression mode : Lossy
Stream size : 46.5 MiB (2%)
Title : espagnol
Language : Spanish
Default : Yes
Alternate group : 2

Audio #4
ID : 4
Format : AAC
Format/Info : Advanced Audio Codec
Format profile : HE-AAC / LC
Format settings : Explicit
Codec ID : mp4a-40-2
Duration : 50 min 45 s
Bit rate mode : Constant
Bit rate : 128 kb/s
Channel(s) : 2 channels
Channel positions : Front: L R
Sampling rate : 48.0 kHz / 24.0 kHz
Frame rate : 23.438 FPS (1024 SPF)
Compression mode : Lossy
Stream size : 46.5 MiB (2%)
Title : français
Language : French
Default : Yes
Alternate group : 3

Audio #5
ID : 5
Format : AAC
Format/Info : Advanced Audio Codec
Format profile : HE-AAC / LC
Format settings : Explicit
Codec ID : mp4a-40-2
Duration : 50 min 45 s
Bit rate mode : Constant
Bit rate : 128 kb/s
Channel(s) : 2 channels
Channel positions : Front: L R
Sampling rate : 48.0 kHz / 24.0 kHz
Frame rate : 23.438 FPS (1024 SPF)
Compression mode : Lossy
Stream size : 46.5 MiB (2%)
Title : italien
Language : Italian
Default : Yes
Alternate group : 4

Audio #6
ID : 6
Format : E-AC-3
Format/Info : Enhanced Audio Coding 3
Format settings, Endianness : Big
Codec ID : ec-3
Duration : 50 min 45 s
Bit rate mode : Constant
Bit rate : 640 kb/s
Channel(s) : 6 channels
Channel positions : Front: L C R, Side: L R, LFE
Sampling rate : 48.0 kHz
Frame rate : 187.500 FPS (256 SPF)
Bit depth : 16 bits
Compression mode : Lossy
Stream size : 232 MiB (12%)
Title : anglais [VO]
Language : English
Service kind : Complete Main
Default : Yes
Alternate group : 5

Text #1
ID : 8
Format : Timed Text
Muxing mode : sbtl
Codec ID : tx3g
Duration : 49 min 40 s
Bit rate mode : Variable
Bit rate : 68 b/s
Stream size : 24.9 KiB (0%)
Title : allemand
Language : German
Default : Yes
Forced : No
Alternate group : 7

Text #2
ID : 9
Format : Timed Text
Muxing mode : sbtl
Codec ID : tx3g
Duration : 49 min 40 s
Bit rate mode : Variable
Bit rate : 74 b/s
Stream size : 27.1 KiB (0%)
Title : espagnol
Language : Spanish
Default : No
Forced : No
Alternate group : 8

Text #3
ID : 10
Format : Timed Text
Muxing mode : sbtl
Codec ID : tx3g
Duration : 49 min 39 s
Bit rate mode : Variable
Bit rate : 69 b/s
Stream size : 25.1 KiB (0%)
Title : français
Language : French
Default : No
Forced : No
Alternate group : 9

Text #4
ID : 11
Format : Timed Text
Muxing mode : sbtl
Codec ID : tx3g
Duration : 49 min 40 s
Bit rate mode : Variable
Bit rate : 65 b/s
Stream size : 23.6 KiB (0%)
Title : italien
Language : Italian
Default : No
Forced : No
Alternate group : 10

Text #5
ID : 12
Format : Timed Text
Muxing mode : sbtl
Codec ID : tx3g
Duration : 49 min 40 s
Bit rate mode : Variable
Bit rate : 74 b/s
Stream size : 26.8 KiB (0%)
Title : anglais
Language : English
Default : No
Forced : No
Alternate group : 11





Star Trek: Discovery S03E01


Star Trek: Discovery S03E01


Star Trek: Discovery S03E01


Star Trek: Discovery S03E01


Star Trek: Discovery S03E01

All episodes