Featured TV Shows


Goliath S37E03

Posted By: Tavaz
1080p (FullHD) / WEB-DL IMDb
Goliath S37E03

Goliath S37E03
WEB-DL | MKV | 1920x1080 | H264 @ 14080 kbps | E-AC-3 @ 640 kbps | 42 min 58 s | 4.51 GiB
Genre: Crime, Drama

Once a powerful lawyer, Billy McBride is now burned out and washed up, spending more time in a bar than a courtroom. When he reluctantly agrees to pursue a wrongful death lawsuit against the biggest client of Cooperman & McBride, the massive law firm he helped create, Billy and his ragtag team uncover a vast and deadly conspiracy, pitting them all in a life or death trial against the ultimate Goliath.

03c6700f26964103940ba43e3f14bfa9.mkv (4.5 GB)



General
Unique ID : 283999300729271779157056812152265988282 (0xD5A84697496E8CAEF91FB1DB2AF158BA)
Complete name : ./03c6700f26964103940ba43e3f14bfa9.mkv
Format : Matroska
Format version : Version 4 / Version 2
File size : 4.51 GiB
Duration : 42 min 58 s
Overall bit rate : 15.0 Mb/s
Writing application : Lavf57.82.100
Writing library : Lavf57.82.100
ErrorDetectionType : Per level 1

Video
ID : 1
Format : AVC
Format/Info : Advanced Video Codec
Format profile : High@L4
Format settings : CABAC / 4 Ref Frames
Format settings, CABAC : Yes
Format settings, RefFrames : 4 frames
Codec ID : V_MPEG4/ISO/AVC
Duration : 42 min 58 s
Bit rate : 14.1 Mb/s
Width : 1 920 pixels
Height : 1 080 pixels
Display aspect ratio : 16:9
Frame rate mode : Constant
Frame rate : 30.000 FPS
Color space : YUV
Chroma subsampling : 4:2:0
Bit depth : 8 bits
Scan type : Progressive
Bits/(Pixel*Frame) : 0.226
Stream size : 4.23 GiB (94%)
Default : Yes
Forced : No
Color range : Limited
Color primaries : BT.709
Transfer characteristics : BT.709
Matrix coefficients : BT.709

Audio
ID : 2
Format : E-AC-3
Format/Info : Enhanced Audio Coding 3
Format settings, Endianness : Big
Codec ID : A_EAC3
Duration : 42 min 58 s
Bit rate mode : Constant
Bit rate : 640 kb/s
Channel(s) : 6 channels
Channel positions : Front: L C R, Side: L R, LFE
Sampling rate : 48.0 kHz
Frame rate : 187.500 FPS (256 SPF)
Bit depth : 32 bits
Compression mode : Lossy
Stream size : 197 MiB (4%)
Service kind : Complete Main
Default : Yes
Forced : No





Goliath S37E03


Goliath S37E03


Goliath S37E03


Goliath S37E03


Goliath S37E03

All episodes