The Romanoffs S01E06

Posted By: Tavaz
720p (HD) / WEBRip IMDb
The Romanoffs S01E06

The Romanoffs S01E06
WEBRip | MKV | 1280x720 | English | H264 @ 1553 kbps | E-AC-3 @ 640 kbps | 1 h 20 min | 1.23 GiB
Subtitles: English
Genre: Drama

An anthology series centered around people who believe themselves to be the modern-day descendants of the Romanov family.

0a835a6e3c134b2281a35293043e4744.mkv (1.2 GB)



General
Unique ID : 216134718296178042523142884701870768809 (0xA29A085865A0A195E6FD4BC04C6442A9)
Complete name : ./0a835a6e3c134b2281a35293043e4744.mkv
Format : Matroska
Format version : Version 4 / Version 2
File size : 1.23 GiB
Duration : 1 h 20 min
Overall bit rate : 2 196 kb/s
Encoded date : UTC 2018-11-08 22:01:55
Writing application : mkvmerge v25.0.0 ('Prog Noir') 32-bit
Writing library : libebml v1.3.6 + libmatroska v1.4.9

Video
ID : 1
Format : AVC
Format/Info : Advanced Video Codec
Format profile : High@L3.1
Format settings : CABAC / 5 Ref Frames
Format settings, CABAC : Yes
Format settings, RefFrames : 5 frames
Codec ID : V_MPEG4/ISO/AVC
Duration : 1 h 20 min
Bit rate : 1 554 kb/s
Width : 1 280 pixels
Height : 720 pixels
Display aspect ratio : 16:9
Frame rate mode : Constant
Frame rate : 23.976 (24000/1001) FPS
Color space : YUV
Chroma subsampling : 4:2:0
Bit depth : 8 bits
Scan type : Progressive
Bits/(Pixel*Frame) : 0.070
Stream size : 893 MiB (71%)
Default : Yes
Forced : No
Color range : Limited
Color primaries : BT.709
Transfer characteristics : BT.709
Matrix coefficients : BT.709

Audio
ID : 2
Format : E-AC-3
Format/Info : Enhanced Audio Coding 3
Format settings, Endianness : Big
Codec ID : A_EAC3
Duration : 1 h 20 min
Bit rate mode : Constant
Bit rate : 640 kb/s
Channel(s) : 6 channels
Channel positions : Front: L C R, Side: L R, LFE
Sampling rate : 48.0 kHz
Frame rate : 187.500 FPS (256 SPF)
Compression mode : Lossy
Stream size : 368 MiB (29%)
Title : English
Language : English
Service kind : Complete Main
Default : Yes
Forced : No

Text
ID : 3
Format : UTF-8
Codec ID : S_TEXT/UTF8
Codec ID/Info : UTF-8 Plain Text
Duration : 1 h 19 min
Bit rate : 40 b/s
Count of elements : 857
Stream size : 23.7 KiB (0%)
Title : English [SDH]
Language : English
Default : No
Forced : No

Menu
00:00:00.000 : en:Amazon Original
00:00:05.000 : en:Title Sequence
00:01:35.000 : en:Abel gets a few tests done
00:13:32.000 : en:Abel has a follow up appointment for the results
00:17:53.000 : en:Abel is confronted with his negativity
00:23:44.000 : en:Victoria, Nick, and Abel explore Mexico City cathedrals
00:33:41.000 : en:Abel offers to show them more of the city
00:38:16.000 : en:All of history, happening at once
00:46:43.000 : en:Lourdes gives Abel valuable information
00:53:08.000 : en:Life and death can make anything look like love
01:03:26.000 : en:Being connected is bigger than anything else
01:13:21.000 : en:Hearts always hurt more while they are learning
01:19:18.000 : en:End Credits





The Romanoffs S01E06


The Romanoffs S01E06


The Romanoffs S01E06


The Romanoffs S01E06


The Romanoffs S01E06

All episodes