Featured TV Shows


The Vet Life S03E02

Posted By: Tavaz
720p (HD) / HDTV IMDb
The Vet Life S03E02

The Vet Life S03E02
HDTV | MKV | 1280x720 | English | H264 @ 2418 kbps | AC-3 @ 384 kbps | 41 min 35 s | 834 MiB

Follow veterinarians Dr. Diarra Blue, Dr. Aubrey Ross and Dr. Michael Lavigne, who recently moved to Houston to open a full-service veterinarian hospital and animal shelter together. The series captures the doctors' lives as they juggle running a new business while managing their family life filled with spouses, parents, in-laws, children, pets and friends, as well as their intense moments saving the lives of animals at their clinic.

f368b73c1988474cb99afcf1735785fa.mkv (834.4 MB)



General
Unique ID : 203700540164342796438302953844005542082 (0x993F4C0820FBB0E785EF112BD3E218C2)
Complete name : ./f368b73c1988474cb99afcf1735785fa.mkv
Format : Matroska
Format version : Version 4 / Version 2
File size : 834 MiB
Duration : 41 min 35 s
Overall bit rate : 2 805 kb/s
Encoded date : UTC 2018-01-21 11:58:49
Writing application : mkvmerge v9.0.1 ('Obstacles') 64bit
Writing library : libebml v1.3.3 + libmatroska v1.4.4

Video
ID : 2
Format : AVC
Format/Info : Advanced Video Codec
Format profile : High@L4.1
Format settings : CABAC / 5 Ref Frames
Format settings, CABAC : Yes
Format settings, RefFrames : 5 frames
Codec ID : V_MPEG4/ISO/AVC
Duration : 41 min 35 s
Bit rate : 2 419 kb/s
Width : 1 280 pixels
Height : 720 pixels
Display aspect ratio : 16:9
Frame rate mode : Constant
Frame rate : 23.976 (24000/1001) FPS
Color space : YUV
Chroma subsampling : 4:2:0
Bit depth : 8 bits
Scan type : Progressive
Bits/(Pixel*Frame) : 0.109
Stream size : 720 MiB (86%)
Writing library : x264 core 155 r2893 b00bcaf
Encoding settings : cabac=1 / ref=5 / deblock=1:0:0 / analyse=0x3:0x113 / me=umh / subme=8 / psy=1 / psy_rd=1.00:0.15 / mixed_ref=1 / me_range=16 / chroma_me=1 / trellis=2 / 8x8dct=1 / cqm=0 / deadzone=21,11 / fast_pskip=1 / chroma_qp_offset=-3 / threads=12 / lookahead_threads=2 / sliced_threads=0 / nr=0 / decimate=1 / interlaced=0 / bluray_compat=0 / constrained_intra=0 / bframes=3 / b_pyramid=2 / b_adapt=1 / b_bias=0 / direct=3 / weightb=1 / open_gop=0 / weightp=2 / keyint=240 / keyint_min=23 / scenecut=40 / intra_refresh=0 / rc_lookahead=50 / rc=crf / mbtree=1 / crf=20.0 / qcomp=0.60 / qpmin=0 / qpmax=69 / qpstep=4 / vbv_maxrate=62500 / vbv_bufsize=78125 / crf_max=0.0 / nal_hrd=none / filler=0 / ip_ratio=1.40 / aq=1:1.00
Language : English
Default : Yes
Forced : No
Color range : Limited
Matrix coefficients : BT.709

Audio
ID : 1
Format : AC-3
Format/Info : Audio Coding 3
Format settings, Endianness : Big
Codec ID : A_AC3
Duration : 41 min 35 s
Bit rate mode : Constant
Bit rate : 384 kb/s
Channel(s) : 6 channels
Channel positions : Front: L C R, Side: L R, LFE
Sampling rate : 48.0 kHz
Frame rate : 31.250 FPS (1536 SPF)
Bit depth : 16 bits
Compression mode : Lossy
Delay relative to video : 24 ms
Stream size : 114 MiB (14%)
Service kind : Complete Main
Default : Yes
Forced : No





The Vet Life S03E02


The Vet Life S03E02


The Vet Life S03E02


The Vet Life S03E02


The Vet Life S03E02

All episodes