Wheeler Dealers S14E02

Posted By: Tavaz
1080p (FullHD) / WEBRip IMDb
Wheeler Dealers S14E02

Wheeler Dealers S14E02
WEBRip | MKV | 1920x1080 | English | H264 @ 6200 kbps | AAC @ 128 kbps | 43 min 49 s | 1.94 GiB
Genre: Documentary

Experienced car dealer Mike Brewer is joined by multi-talented mechanics in a monumental motoring mission: to find and restore iconic cars to later sell for a profit at their LA-based shop. In the series, Mike has the challenging job of finding vehicles that have money-making potential. He then hands them over to a mechanic, who tackles everything from bare metal re-sprays to gearbox swaps to bring them back to their former glory.

eb68f1f15469492ea9bdd16a1d1fb820.mkv (1.9 GB)



General
Unique ID : 302093523902872160716459399263036739950 (0xE34518ABA3888067584F5C6E0311916E)
Complete name : ./eb68f1f15469492ea9bdd16a1d1fb820.mkv
Format : Matroska
Format version : Version 4 / Version 2
File size : 1.94 GiB
Duration : 43 min 49 s
Overall bit rate : 6 331 kb/s
Encoded date : UTC 2018-01-16 17:59:16
Writing application : mkvmerge v9.8.0 ('Kuglblids') 64bit
Writing library : libebml v1.3.4 + libmatroska v1.4.5

Video
ID : 1
Format : AVC
Format/Info : Advanced Video Codec
Format profile : Main@L4.1
Format settings : CABAC / 3 Ref Frames
Format settings, CABAC : Yes
Format settings, RefFrames : 3 frames
Codec ID : V_MPEG4/ISO/AVC
Duration : 43 min 49 s
Bit rate : 6 200 kb/s
Width : 1 920 pixels
Height : 1 080 pixels
Display aspect ratio : 16:9
Frame rate mode : Constant
Frame rate : 25.000 FPS
Color space : YUV
Chroma subsampling : 4:2:0
Bit depth : 8 bits
Scan type : Progressive
Bits/(Pixel*Frame) : 0.120
Stream size : 1.90 GiB (98%)
Default : Yes
Forced : No
Color range : Limited
Color primaries : BT.709
Transfer characteristics : BT.709
Matrix coefficients : BT.709

Audio
ID : 2
Format : AAC
Format/Info : Advanced Audio Codec
Format profile : LC
Codec ID : A_AAC-2
Duration : 43 min 49 s
Bit rate : 128 kb/s
Channel(s) : 2 channels
Channel positions : Front: L R
Sampling rate : 48.0 kHz
Frame rate : 46.875 FPS (1024 SPF)
Compression mode : Lossy
Stream size : 40.1 MiB (2%)
Default : Yes
Forced : No





Wheeler Dealers S14E02


Wheeler Dealers S14E02


Wheeler Dealers S14E02


Wheeler Dealers S14E02


Wheeler Dealers S14E02

All episodes