Wheeler Dealers S14E03

Posted By: Tavaz
1080p (FullHD) / WEBRip IMDb
Wheeler Dealers S14E03

Wheeler Dealers S14E03
WEBRip | MKV | 1920x1080 | English | H264 @ 6178 kbps | AAC @ 128 kbps | 44 min 13 s | 1.95 GiB
Genre: Documentary

Experienced car dealer Mike Brewer is joined by multi-talented mechanics in a monumental motoring mission: to find and restore iconic cars to later sell for a profit at their LA-based shop. In the series, Mike has the challenging job of finding vehicles that have money-making potential. He then hands them over to a mechanic, who tackles everything from bare metal re-sprays to gearbox swaps to bring them back to their former glory.

2c170f336e464e82ac52fa0d46888f7f.mkv (1.9 GB)



General
Unique ID : 180956789830999523688049516277563108397 (0x8823029082F3ACE1033F7D312B5FAC2D)
Complete name : ./2c170f336e464e82ac52fa0d46888f7f.mkv
Format : Matroska
Format version : Version 4 / Version 2
File size : 1.95 GiB
Duration : 44 min 13 s
Overall bit rate : 6 309 kb/s
Encoded date : UTC 2018-01-23 06:12:55
Writing application : mkvmerge v9.8.0 ('Kuglblids') 64bit
Writing library : libebml v1.3.4 + libmatroska v1.4.5

Video
ID : 1
Format : AVC
Format/Info : Advanced Video Codec
Format profile : Main@L4.1
Format settings : CABAC / 3 Ref Frames
Format settings, CABAC : Yes
Format settings, RefFrames : 3 frames
Codec ID : V_MPEG4/ISO/AVC
Duration : 44 min 13 s
Bit rate : 6 178 kb/s
Width : 1 920 pixels
Height : 1 080 pixels
Display aspect ratio : 16:9
Frame rate mode : Constant
Frame rate : 25.000 FPS
Color space : YUV
Chroma subsampling : 4:2:0
Bit depth : 8 bits
Scan type : Progressive
Bits/(Pixel*Frame) : 0.119
Stream size : 1.91 GiB (98%)
Default : Yes
Forced : No
Color range : Limited
Color primaries : BT.709
Transfer characteristics : BT.709
Matrix coefficients : BT.709

Audio
ID : 2
Format : AAC
Format/Info : Advanced Audio Codec
Format profile : LC
Codec ID : A_AAC-2
Duration : 44 min 13 s
Bit rate : 128 kb/s
Channel(s) : 2 channels
Channel positions : Front: L R
Sampling rate : 48.0 kHz
Frame rate : 46.875 FPS (1024 SPF)
Compression mode : Lossy
Stream size : 40.5 MiB (2%)
Default : Yes
Forced : No





Wheeler Dealers S14E03


Wheeler Dealers S14E03


Wheeler Dealers S14E03


Wheeler Dealers S14E03


Wheeler Dealers S14E03

All episodes