Featured TV Shows


Young Sheldon S02E15

Posted By: Tavaz
720p (HD) / BDRip IMDb
Young Sheldon S02E15

Young Sheldon S02E15
BDRip | MKV | 1280x720 | German | H264 @ 4632 kbps | AC-3 @ 192 kbps | 19 min 27 s | 699 MiB
Genre: Komödie


Spin-off zum Sitcom-Hit „The Big Bang Theory“ über die Kindheit des genial-neurotischen Physikers Dr. Sheldon Cooper. Der neunjährige, hochintelligente Jungen Sheldon, wächst wohlbehütet bei seiner äußerst konservativen und christlichen Familie in Texas auf. Mit seiner Wissenschaftsbegeisterung und seiner Besserwisserei stößt er bei seiner Familie, seinen Mitschülern und Lehrern an der Highschool und bei anderen Texanern regelmäßig auf Unverständnis und Ablehnung.

YoSh S02E15 German SD.mkv (134.8 MB)
YoSh S02E13 German HD.mkv (698.9 MB)
YoSh S02E14 German SD.mkv (134.8 MB)



General
Unique ID : 328873873599542815592166031915097452435 (0xF76ACDDA19B4D2A0B0B918947562EF93)
Complete name : ./YoSh S02E13e14e15 German HD SD/YoSh S02E13 German HD.mkv
Format : Matroska
Format version : Version 4 / Version 2
File size : 699 MiB
Duration : 19 min 27 s
Overall bit rate : 5 021 kb/s
Movie name : Young.Sheldon.S02E13.GERMAN.DUBBED.720p.BluRay.x264-idTV
Encoded date : UTC 2019-09-08 10:11:13
Writing application : mkvmerge v19.0.0 ('Brave Captain') 64-bit
Writing library : libebml v1.3.5 + libmatroska v1.4.8

Video
ID : 1
Format : AVC
Format/Info : Advanced Video Codec
Format profile : High@L4.1
Format settings : CABAC / 5 Ref Frames
Format settings, CABAC : Yes
Format settings, RefFrames : 5 frames
Codec ID : V_MPEG4/ISO/AVC
Duration : 19 min 27 s
Bit rate : 4 632 kb/s
Width : 1 280 pixels
Height : 720 pixels
Display aspect ratio : 16:9
Frame rate mode : Constant
Frame rate : 25.000 FPS
Original frame rate : 23.976 (24000/1001) FPS
Color space : YUV
Chroma subsampling : 4:2:0
Bit depth : 8 bits
Scan type : Progressive
Bits/(Pixel*Frame) : 0.201
Stream size : 672 MiB (96%)
Writing library : x264 core 158 r2984 3759fcb
Encoding settings : cabac=1 / ref=5 / deblock=1:-3:-3 / analyse=0x3:0x113 / me=umh / subme=8 / psy=1 / psy_rd=1.00:0.00 / mixed_ref=1 / me_range=24 / chroma_me=1 / trellis=2 / 8x8dct=1 / cqm=0 / deadzone=21,11 / fast_pskip=1 / chroma_qp_offset=-2 / threads=22 / lookahead_threads=3 / sliced_threads=0 / nr=0 / decimate=1 / interlaced=0 / bluray_compat=0 / constrained_intra=0 / bframes=3 / b_pyramid=2 / b_adapt=2 / b_bias=0 / direct=3 / weightb=1 / open_gop=0 / weightp=2 / keyint=240 / keyint_min=24 / scenecut=40 / intra_refresh=0 / rc_lookahead=50 / rc=2pass / mbtree=1 / bitrate=4632 / ratetol=1.0 / qcomp=0.60 / qpmin=0 / qpmax=69 / qpstep=4 / cplxblur=20.0 / qblur=0.5 / ip_ratio=1.40 / aq=3:0.80
Default : Yes
Forced : No

Audio
ID : 2
Format : AC-3
Format/Info : Audio Coding 3
Format settings, Endianness : Big
Codec ID : A_AC3
Duration : 19 min 27 s
Bit rate mode : Constant
Bit rate : 192 kb/s
Channel(s) : 2 channels
Channel positions : Front: L R
Sampling rate : 48.0 kHz
Frame rate : 31.250 FPS (1536 SPF)
Bit depth : 16 bits
Compression mode : Lossy
Stream size : 26.7 MiB (4%)
Language : German
Service kind : Complete Main
Default : Yes
Forced : Yes





Young Sheldon S02E15


Young Sheldon S02E15


Young Sheldon S02E15


Young Sheldon S02E15


Young Sheldon S02E15

All episodes