Game of Thrones S02E01

Posted By: Tavaz
Game of Thrones S02E01

Game of Thrones S02E01
MKV | 1920x1080 | English / German / English | H264 @ 29829 kbps | DTS | 52 min 41 s | 12.9 GiB
Subtitles: German, English
Genre: Drama

Seven noble families fight for control of the mythical land of Westeros. Friction between the houses leads to full-scale war. All while a very ancient evil awakens in the farthest north. Amidst the war, a neglected military order of misfits, the Night's Watch, is all that stands between the realms of men and icy horrors beyond.

game.of.thrones.s02e01.the.north.remembers.eng.ger.dtshd.ma.5.1-xiMvZ-Rakuvfinhel=9622b4627cbbfe03e049c178c46eaa5c924247a8.part1.rar (6.8 GB)
game.of.thrones.s02e01.the.north.remembers.eng.ger.dtshd.ma.5.1-xiMvZ-Rakuvfinhel=9622b4627cbbfe03e049c178c46eaa5c924247a8.part2.rar (6.3 GB)



General
Unique ID : 199200912847273037419909083332088923340 (0x95DCB346DF71975EAB5706CDC72F84CC)
Complete name : ./ebe42bc922a04855a75d2ea72f0354a7.mkv
Format : Matroska
Format version : Version 4 / Version 2
File size : 12.9 GiB
Duration : 52 min 41 s
Overall bit rate mode : Variable
Overall bit rate : 35.0 Mb/s
Encoded date : UTC 2017-07-28 15:15:52
Writing application : mkvmerge v9.0.1 ('Obstacles') 64bit
Writing library : libebml v1.3.3 + libmatroska v1.4.4

Video
ID : 1
Format : AVC
Format/Info : Advanced Video Codec
Format profile : High@L4.1
Format settings : CABAC / 4 Ref Frames
Format settings, CABAC : Yes
Format settings, RefFrames : 4 frames
Codec ID : V_MPEG4/ISO/AVC
Duration : 52 min 41 s
Bit rate mode : Variable
Bit rate : 29.8 Mb/s
Maximum bit rate : 35.0 Mb/s
Width : 1 920 pixels
Height : 1 080 pixels
Display aspect ratio : 16:9
Frame rate mode : Constant
Frame rate : 23.976 (24000/1001) FPS
Color space : YUV
Chroma subsampling : 4:2:0
Bit depth : 8 bits
Scan type : Progressive
Bits/(Pixel*Frame) : 0.600
Stream size : 11.0 GiB (85%)
Default : Yes
Forced : No

Audio #1
ID : 2
Format : DTS
Format/Info : Digital Theater Systems
Format profile : MA / Core
Mode : 16
Format settings, Endianness : Big
Codec ID : A_DTS
Duration : 52 min 41 s
Bit rate mode : Variable / Constant
Bit rate : 3 646 kb/s / 1 509 kb/s
Channel(s) : 6 channels
Channel positions : Front: L C R, Side: L R, LFE
Sampling rate : 48.0 kHz
Frame rate : 93.750 FPS (512 SPF)
Bit depth : 24 bits
Compression mode : Lossless / Lossy
Stream size : 1.34 GiB (10%)
Language : English
Default : Yes
Forced : No

Audio #2
ID : 3
Format : DTS
Format/Info : Digital Theater Systems
Mode : 16
Format settings, Endianness : Big
Codec ID : A_DTS
Duration : 52 min 41 s
Bit rate mode : Constant
Bit rate : 768 kb/s
Channel(s) : 6 channels
Channel positions : Front: L C R, Side: L R, LFE
Sampling rate : 48.0 kHz
Frame rate : 93.750 FPS (512 SPF)
Bit depth : 24 bits
Compression mode : Lossy
Stream size : 289 MiB (2%)
Language : German
Default : No
Forced : No

Audio #3
ID : 4
Format : DTS
Format/Info : Digital Theater Systems
Mode : 16
Format settings, Endianness : Big
Codec ID : A_DTS
Duration : 52 min 41 s
Bit rate mode : Constant
Bit rate : 768 kb/s
Channel(s) : 6 channels
Channel positions : Front: L C R, Side: L R, LFE
Sampling rate : 48.0 kHz
Frame rate : 93.750 FPS (512 SPF)
Bit depth : 24 bits
Compression mode : Lossy
Stream size : 289 MiB (2%)
Language : English
Default : No
Forced : No

Text #1
ID : 5
Format : PGS
Muxing mode : zlib
Codec ID : S_HDMV/PGS
Codec ID/Info : Picture based subtitle format used on BDs/HD-DVDs
Duration : 48 min 52 s
Bit rate : 13.8 kb/s
Count of elements : 1480
Stream size : 4.82 MiB (0%)
Language : English
Default : Yes
Forced : No

Text #2
ID : 6
Format : PGS
Muxing mode : zlib
Codec ID : S_HDMV/PGS
Codec ID/Info : Picture based subtitle format used on BDs/HD-DVDs
Duration : 48 min 35 s
Bit rate : 13.1 kb/s
Count of elements : 1380
Stream size : 4.57 MiB (0%)
Language : German
Default : No
Forced : No





Game of Thrones S02E01


Game of Thrones S02E01


Game of Thrones S02E01


Game of Thrones S02E01


Game of Thrones S02E01

All episodes