Game of Thrones S02E02

Posted By: Tavaz
Game of Thrones S02E02

Game of Thrones S02E02
MKV | 1920x1080 | English / German / English | H264 @ 29851 kbps | DTS | 53 min 29 s | 13.0 GiB
Subtitles: German, English
Genre: Drama

Seven noble families fight for control of the mythical land of Westeros. Friction between the houses leads to full-scale war. All while a very ancient evil awakens in the farthest north. Amidst the war, a neglected military order of misfits, the Night's Watch, is all that stands between the realms of men and icy horrors beyond.

game.of.thrones.s02e02.the.night.lands.eng.ger.dtshd.ma.5.1-xiMvZ-Rakuvfinhel=60dd08668cb5d4dca0d04ed035b2970ee8fddd15.part1.rar (6.8 GB)
game.of.thrones.s02e02.the.night.lands.eng.ger.dtshd.ma.5.1-xiMvZ-Rakuvfinhel=60dd08668cb5d4dca0d04ed035b2970ee8fddd15.part2.rar (6.3 GB)



General
Unique ID : 187059820239651091106843544229833702573 (0x8CBA6931FEE5D56A8F53623370D97CAD)
Complete name : ./f8a8c8b239634597ba5439cca6e950a0.mkv
Format : Matroska
Format version : Version 4 / Version 2
File size : 13.0 GiB
Duration : 53 min 29 s
Overall bit rate mode : Variable
Overall bit rate : 34.9 Mb/s
Encoded date : UTC 2017-07-28 15:48:46
Writing application : mkvmerge v9.0.1 ('Obstacles') 64bit
Writing library : libebml v1.3.3 + libmatroska v1.4.4

Video
ID : 1
Format : AVC
Format/Info : Advanced Video Codec
Format profile : High@L4.1
Format settings : CABAC / 4 Ref Frames
Format settings, CABAC : Yes
Format settings, RefFrames : 4 frames
Codec ID : V_MPEG4/ISO/AVC
Duration : 53 min 29 s
Bit rate mode : Variable
Bit rate : 29.9 Mb/s
Maximum bit rate : 35.0 Mb/s
Width : 1 920 pixels
Height : 1 080 pixels
Display aspect ratio : 16:9
Frame rate mode : Constant
Frame rate : 23.976 (24000/1001) FPS
Color space : YUV
Chroma subsampling : 4:2:0
Bit depth : 8 bits
Scan type : Progressive
Bits/(Pixel*Frame) : 0.600
Stream size : 11.2 GiB (86%)
Default : Yes
Forced : No

Audio #1
ID : 2
Format : DTS
Format/Info : Digital Theater Systems
Format profile : MA / Core
Mode : 16
Format settings, Endianness : Big
Codec ID : A_DTS
Duration : 53 min 29 s
Bit rate mode : Variable / Constant
Bit rate : 3 475 kb/s / 1 509 kb/s
Channel(s) : 6 channels
Channel positions : Front: L C R, Side: L R, LFE
Sampling rate : 48.0 kHz
Frame rate : 93.750 FPS (512 SPF)
Bit depth : 24 bits
Compression mode : Lossless / Lossy
Stream size : 1.30 GiB (10%)
Language : English
Default : Yes
Forced : No

Audio #2
ID : 3
Format : DTS
Format/Info : Digital Theater Systems
Mode : 16
Format settings, Endianness : Big
Codec ID : A_DTS
Duration : 53 min 29 s
Bit rate mode : Constant
Bit rate : 768 kb/s
Channel(s) : 6 channels
Channel positions : Front: L C R, Side: L R, LFE
Sampling rate : 48.0 kHz
Frame rate : 93.750 FPS (512 SPF)
Bit depth : 24 bits
Compression mode : Lossy
Stream size : 294 MiB (2%)
Language : German
Default : No
Forced : No

Audio #3
ID : 4
Format : DTS
Format/Info : Digital Theater Systems
Mode : 16
Format settings, Endianness : Big
Codec ID : A_DTS
Duration : 53 min 29 s
Bit rate mode : Constant
Bit rate : 768 kb/s
Channel(s) : 6 channels
Channel positions : Front: L C R, Side: L R, LFE
Sampling rate : 48.0 kHz
Frame rate : 93.750 FPS (512 SPF)
Bit depth : 24 bits
Compression mode : Lossy
Stream size : 294 MiB (2%)
Language : English
Default : No
Forced : No

Text #1
ID : 5
Format : PGS
Muxing mode : zlib
Codec ID : S_HDMV/PGS
Codec ID/Info : Picture based subtitle format used on BDs/HD-DVDs
Duration : 50 min 11 s
Bit rate : 14.5 kb/s
Count of elements : 1624
Stream size : 5.19 MiB (0%)
Language : English
Default : Yes
Forced : No

Text #2
ID : 6
Format : PGS
Muxing mode : zlib
Codec ID : S_HDMV/PGS
Codec ID/Info : Picture based subtitle format used on BDs/HD-DVDs
Duration : 47 min 16 s
Bit rate : 14.0 kb/s
Count of elements : 1488
Stream size : 4.73 MiB (0%)
Language : German
Default : No
Forced : No





Game of Thrones S02E02


Game of Thrones S02E02


Game of Thrones S02E02


Game of Thrones S02E02


Game of Thrones S02E02

All episodes