Featured TV Shows


Atlanta S06E05

Posted By: Tavaz
Atlanta S06E05

Atlanta S06E05
MKV | 640x480 | H264 @ 659 kbps | MPEG Audio @ 128 kbps | 41 min 8 s | 237 MiB
Genre: Comedy

Two cousins, with different views on art versus commerce, on their way up through the Atlanta rap scene; Earnest 'Earn' Marks, an ambitious college dropout and his estranged cousin, who suddenly becomes a star.

Love.and.Hip.Hop.Atlanta.S06E05.War.and.Peace.480p.x264-mSD.mkv (236.6 MB)



General
Unique ID : 268538522245491776559252292373576568259 (0xCA06A35BECB6BC8E48A4C22165EE4DC3)
Complete name : ./Love.and.Hip.Hop.Atlanta.S06E05.War.and.Peace.480p.x264-mSD.mkv
Format : Matroska
Format version : Version 4 / Version 2
File size : 237 MiB
Duration : 41 min 8 s
Overall bit rate : 804 kb/s
Writing application : Lavf57.70.100
Writing library : Lavf57.70.100
ErrorDetectionType : Per level 1

Video
ID : 1
Format : AVC
Format/Info : Advanced Video Codec
Format profile : High@L3
Format settings : CABAC / 4 Ref Frames
Format settings, CABAC : Yes
Format settings, RefFrames : 4 frames
Codec ID : V_MPEG4/ISO/AVC
Duration : 41 min 8 s
Bit rate : 660 kb/s
Width : 640 pixels
Height : 480 pixels
Display aspect ratio : 16:9
Frame rate mode : Constant
Frame rate : 29.970 (30000/1001) FPS
Color space : YUV
Chroma subsampling : 4:2:0
Bit depth : 8 bits
Scan type : Progressive
Bits/(Pixel*Frame) : 0.072
Stream size : 194 MiB (82%)
Writing library : x264 core 148 r2762 90a61ec
Encoding settings : cabac=1 / ref=1 / deblock=1:0:0 / analyse=0x3:0x113 / me=hex / subme=2 / psy=1 / psy_rd=1.00:0.00 / mixed_ref=0 / me_range=16 / chroma_me=1 / trellis=0 / 8x8dct=1 / cqm=0 / deadzone=21,11 / fast_pskip=1 / chroma_qp_offset=0 / threads=12 / lookahead_threads=3 / sliced_threads=0 / nr=0 / decimate=1 / interlaced=0 / bluray_compat=0 / constrained_intra=0 / bframes=3 / b_pyramid=2 / b_adapt=1 / b_bias=0 / direct=1 / weightb=1 / open_gop=0 / weightp=1 / keyint=250 / keyint_min=25 / scenecut=40 / intra_refresh=0 / rc_lookahead=10 / rc=crf / mbtree=1 / crf=21.0 / qcomp=0.60 / qpmin=0 / qpmax=69 / qpstep=4 / ip_ratio=1.40 / aq=1:1.00
Language : English
Default : Yes
Forced : No
Statistics Tags Issue : mkvmerge v9.0.1 ('Obstacles') 64bit 2017-04-04 07:49:32 / Lavf57.70.100
FromStats_BitRate : 2580983
FromStats_Duration : 00:41:08.799000000
FromStats_FrameCount : 73990
FromStats_StreamSize : 796491142

Audio
ID : 2
Format : MPEG Audio
Format version : Version 1
Format profile : Layer 3
Format settings : Joint stereo / MS Stereo
Mode : Joint stereo
Mode extension : MS Stereo
Codec ID : A_MPEG/L3
Codec ID/Hint : MP3
Duration : 41 min 8 s
Bit rate mode : Constant
Bit rate : 128 kb/s
Channel(s) : 2 channels
Sampling rate : 48.0 kHz
Compression mode : Lossy
Delay relative to video : 2 ms
Stream size : 37.7 MiB (16%)
Writing library : Lavc57.88.100 libmp3lame
Default : Yes
Forced : No
Statistics Tags Issue : mkvmerge v9.0.1 ('Obstacles') 64bit 2017-04-04 07:49:32 / Lavf57.70.100
FromStats_BitRate : 384000
FromStats_Duration : 00:41:08.825000000
FromStats_FrameCount : 77150
FromStats_StreamSize : 118502400





Atlanta S06E05


Atlanta S06E05


Atlanta S06E05


Atlanta S06E05


Atlanta S06E05

All episodes