Subcategories

11 A.M. (2013)

Posted By: king-ston
11 A.M. (2013)

11 A.M. (2013)
HDRip | MP4 | AVC, 3566 Kbps | 1280x720 | 23.976 fps | 2.60 GB | Runtime: 98 Min
Audio: Korean AAC 192 Kbps | 2 channels | 48 KHz | Subtitle : English (SRT)
Genre: Sci-Fi | Thriller

In the not-so distant future, researchers at a deep-sea labaratory have finally succeded in inventing a time machine. Heavily burdened by financial stress, head researcher Woo-seok is promised more funding from a mega-corporation, if he successfully completes a test flight. Ji-wan tries to stop his colleague and lover, Young-eun from going on the dangerous flight, but Woo-seok and Young-eun carry out the mission and travel to 11 A.M - the next day. They arrive at the planned time only to find the base on the verge of collapse. What could have happened in the 24 hours?
IMDB


Video
ID : 1
Format : AVC
Format/Info : Advanced Video Codec
Format profile : Baseline@L3.1
Format settings, CABAC : No
Format settings, ReFrames : 1 frame
Format settings, GOP : M=1, N=96
Codec ID : avc1
Codec ID/Info : Advanced Video Coding
Duration : 1h 38mn
Bit rate : 3 566 Kbps
Width : 1 280 pixels
Height : 720 pixels
Display aspect ratio : 16:9
Frame rate mode : Constant
Frame rate : 23.976 fps
Color space : YUV
Chroma subsampling : 4:2:0
Bit depth : 8 bits
Scan type : Progressive
Bits/(Pixel*Frame) : 0.161
Stream size : 2.47 GiB (95%)
Writing library : x264 core 85 r1442 781d300
Encoding settings : cabac=0 / ref=1 / deblock=0:0:0 / analyse=0x1:0x111 / me=umh / subme=7 / psy=0 / mixed_ref=0 / me_range=16 / chroma_me=1 / trellis=0 / 8x8dct=0 / cqm=0 / deadzone=21,11 / fast_pskip=0 / chroma_qp_offset=0 / threads=18 / sliced_threads=0 / nr=0 / decimate=1 / mbaff=0 / constrained_intra=0 / bframes=0 / wpredp=0 / keyint=96 / keyint_min=49 / scenecut=0 / intra_refresh=0 / rc=2pass / mbtree=0 / bitrate=3566 / ratetol=0.1 / qcomp=0.60 / qpmin=10 / qpmax=51 / qpstep=4 / cplxblur=20.0 / qblur=0.5 / ip_ratio=1.41 / aq=1:1.00
Language : English
Encoded date : UTC 1970-01-01 00:00:00
Tagged date : UTC 1970-01-01 00:00:00

Audio
ID : 2
Format : AAC
Format/Info : Advanced Audio Codec
Format profile : LC
Codec ID : 40
Duration : 1h 38mn
Bit rate mode : Variable
Bit rate : 192 Kbps
Channel(s) : 2 channels
Channel positions : Front: L R
Sampling rate : 44.1 KHz
Compression mode : Lossy
Stream size : 134 MiB (5%)
Language : English
Encoded date : UTC 1970-01-01 00:00:00
Tagged date : UTC 1970-01-01 00:00:00


11 A.M. (2013)