Subcategories

Tantei Opera Milky Holmes Dai 2 Maku (2012) [Season 2 Complete]

Posted By: Lebedev30
Tantei Opera Milky Holmes Dai 2 Maku (2012) [Season 2 Complete]

Tantei Opera Milky Holmes Dai 2 Maku (2012)
BD-Remux | m2ts | 1920x1080 | H264@~35 Mbps | 12x ~ 23mn | 12x ~6.3 Gb
Japanese PCM@2304 Kbps | 2 channels | Subtitles: none
Genre: comedy, game, seinen, super power

Season two starts right where we last left off as the Milky Holmes girls are still trying to find their Toys. They lose their memories for a bit but The Gentlemen Theives snap them out of it so they can fight like the good old times once more. But a far more sinister threat may lie upon them soon enough… can they get the Toys back and defeat it?



01. The End of Vegetables
02. Nice Sushi
03. The Strange Tales of Hakkei Island
04. The Slumbers of Milky Holmes
05. Flashing by the Books
06. The Weirdo on the Orient Express
07. And Then Hope Was Gone
08. Isn`t it Lovely?
09. Got Vacation? Then Take It 2
10. Y.H. Getting Confused?
11. God of Lard
12. The Return of Henriette


General
Format : BDAV
Format/Info : Blu-ray Video
File size : 6.81 GiB
Duration : 23mn 41s
Overall bit rate mode : Variable
Overall bit rate : 41.1 Mbps
Maximum Overall bit rate : 48.0 Mbps

Video
ID : 4113 (0x1011)
Menu ID : 1 (0x1)
Format : AVC
Format/Info : Advanced Video Codec
Format profile : High@L4.1
Format settings, CABAC : Yes
Format settings, ReFrames : 4 frames
Codec ID : 27
Duration : 23mn 41s
Bit rate mode : Variable
Bit rate : 37.2 Mbps
Maximum bit rate : 38.0 Mbps
Width : 1 920 pixels
Height : 1 080 pixels
Display aspect ratio : 16:9
Frame rate : 23.976 fps
Color space : YUV
Chroma subsampling : 4:2:0
Bit depth : 8 bits
Scan type : Progressive
Bits/(Pixel*Frame) : 0.748
Stream size : 6.15 GiB (90%)

Audio
ID : 4352 (0x1100)
Menu ID : 1 (0x1)
Format : PCM
Format settings, Endianness : Big
Format settings, Sign : Signed
Muxing mode : Blu-ray
Codec ID : 128
Duration : 23mn 41s
Bit rate mode : Constant
Bit rate : 2 304 Kbps
Channel(s) : 2 channels
Channel positions : Front: L R
Sampling rate : 48.0 KHz
Bit depth : 24 bits
Stream size : 390 MiB (6%)


Screenshots


Tantei Opera Milky Holmes Dai 2 Maku (2012) [Season 2 Complete]

Tantei Opera Milky Holmes Dai 2 Maku (2012) [Season 2 Complete]

Tantei Opera Milky Holmes Dai 2 Maku (2012) [Season 2 Complete]


Season 1