15 Reasons to Live (2013)

Posted By: notbanned
15 Reasons to Live (2013)

15 Reasons to Live (2013)
DVDRip | 720x480 | .MKV/AVC @ 1800 Kbps | 1h 25min | 1.19 GiB
Audio: English AC3 192 kbps, 2 channels | Subs: None
Genre: Documentary

What gives your life meaning? Family, yoga, good food, those shoes that were on sale? Ray Robertson outlines this own list in his non-fiction book "Why Not: Fifteen Reasons To Live?" And that has inspired Alan Zweig's documentary feature 15 Reasons To Live, which takes up that list as a call to adventure. The 15 reasons are: Love, Solitude, Critical Mind, Art, Individuality, Home, Work, Humor, Friendship, Intoxication, Praise, Meaning, Body, Duty and Death.
More info


General
Unique ID : 228912428957567377769691352309627972379 (0xAC36EE1EC7EA038FA0C0EED3CA096B1B)
Complete name : 15.Reasons.to.Live.mkv
Format : Matroska
Format version : Version 2
File size : 1.19 GiB
Duration : 1 h 25 min
Overall bit rate : 1 994 kb/s

Video
ID : 1
Format : AVC
Format/Info : Advanced Video Codec
Format profile : High@L3.1
Format settings, CABAC : Yes
Format settings, ReFrames : 9 frames
Codec ID : V_MPEG4/ISO/AVC
Duration : 1 h 25 min
Bit rate : 1 800 kb/s
Width : 720 pixels
Height : 480 pixels
Display aspect ratio : 16:9
Frame rate mode : Constant
Frame rate : 23.976 (24000/1001) FPS
Color space : YUV
Chroma subsampling : 4:2:0
Bit depth : 8 bits
Scan type : Progressive
Bits/(Pixel*Frame) : 0.217
Stream size : 1.07 GiB (90%)
Title : 15 Reasons to Live (2013)_Kg
Writing library : x264 core 142 r2431 ac76440
Encoding settings : cabac=1 / ref=9 / deblock=1:-3:-3 / analyse=0x3:0x113 / me=umh / subme=9 / psy=1 / psy_rd=1.00:0.15 / mixed_ref=1 / me_range=26 / chroma_me=1 / trellis=2 / 8x8dct=1 / cqm=0 / deadzone=21,11 / fast_pskip=0 / chroma_qp_offset=-3 / threads=12 / lookahead_threads=1 / sliced_threads=0 / nr=0 / decimate=0 / interlaced=0 / bluray_compat=0 / constrained_intra=0 / bframes=5 / b_pyramid=2 / b_adapt=2 / b_bias=0 / direct=3 / weightb=1 / open_gop=0 / weightp=2 / keyint=240 / keyint_min=23 / scenecut=40 / intra_refresh=0 / rc_lookahead=60 / rc=2pass / mbtree=1 / bitrate=1800 / ratetol=1.0 / qcomp=0.60 / qpmin=0 / qpmax=69 / qpstep=4 / cplxblur=20.0 / qblur=0.5 / vbv_maxrate=14000 / vbv_bufsize=14000 / nal_hrd=none / filler=0 / ip_ratio=1.40 / aq=1:1.00
Language : English
Default : Yes
Forced : No

Audio
ID : 2
Format : AC-3
Format/Info : Audio Coding 3
Format settings, Endianness : Big
Codec ID : A_AC3
Duration : 1 h 25 min
Bit rate mode : Constant
Bit rate : 192 kb/s
Channel(s) : 2 channels
Channel positions : Front: L R
Sampling rate : 48.0 kHz
Frame rate : 31.250 FPS (1536 spf)
Bit depth : 16 bits
Compression mode : Lossy
Stream size : 117 MiB (10%)
Language : English
Service kind : Complete Main
Default : Yes
Forced : No

Text
ID : 3
Format : UTF-8
Codec ID : S_TEXT/UTF8
Codec ID/Info : UTF-8 Plain Text
Duration : 1 h 24 min
Bit rate : 145 b/s
Count of elements : 1715
Stream size : 90.8 KiB (0%)
Language : English
Default : No
Forced : No


Screenshots:

15 Reasons to Live (2013)

15 Reasons to Live (2013)

15 Reasons to Live (2013)

15 Reasons to Live (2013)