Justice League (2001-2004)

Posted By: Lebedev30
1080p (FullHD) / BluRay Remux IMDb
Justice League (2001-2004)

Justice League (2001-2004)
BD-Remux | mkv | 1920x1080 | Seasons 1: WVC1@~16 Mbps, Seasons 2: AVC@~14 Mbps | 52x ~ 23mn | 52x ~2.5 Gb
Seasons 1: English AC-3 640 Kbps, Seasons 2: English DTS 2 472 Kbps | 6 channels | Subtitles: English
Genre: Animation, Action, Adventure


Description:
Forces of evil, chaos, and destruction await. Not even protectors like Superman, Batman, Wonder Woman, Green Lantern, the Flash, Hawkgirl or the Martian Manhunter may have a chance alone. But together as the Justice League, they are a metahuman force (and a hope) to be reckoned with.


01-03. "Secret Origins"
04-05. "In Blackest Night"
06-07. "The Enemy Below"
08-09. "Paradise Lost"
10-11. "War World"
12-13. "The Brave and the Bold"
14-15. "Fury"
16-17. "Legends"
18-19. "Injustice for All"
20-21. "A Knight of Shadows"
22-23. "Metamorphosis"
24-26. "The Savage Time"
27-28. "Twilight"
29-30. "Tabula Rasa"
31-32. "Only a Dream"
33-34. "Maid of Honor"
35-36. "Hearts and Minds"
37-38. "A Better World"
39-40. "Eclipsed"
41-42. "The Terror Beyond"
43-44. "Secret Society"
45-46. "Hereafter"
47-48. "Wild Cards"
49. "Comfort and Joy"
50-52. "Starcrossed"


General
Format : Matroska
Format version : Version 2
File size : 2.62 GiB
Duration : 22 min 5 s
Overall bit rate : 17.0 Mb/s
Movie name : JUSTICE_LEAGUE_S1_D1_NA.Title6.BlurayRip
Encoded date : UTC 2012-08-24 02:06:18
Writing application : DVDFab
Writing library : libebml v0.7.8 + libmatroska v0.8.1

Video
ID : 1
Format : VC-1
Format profile : Advanced@L3
Codec ID : V_MS/VFW/FOURCC / WVC1
Codec ID/Hint : Microsoft
Duration : 22 min 5 s
Bit rate : 16.0 Mb/s
Width : 1 920 pixels
Height : 1 080 pixels
Display aspect ratio : 16:9
Frame rate mode : Constant
Frame rate : 23.976 (24000/1001) FPS
Color space : YUV
Chroma subsampling : 4:2:0
Bit depth : 8 bits
Scan type : Progressive
Compression mode : Lossy
Bits/(Pixel*Frame) : 0.322
Stream size : 2.47 GiB (94%)
Default : Yes
Forced : No

Audio
ID : 2
Format : AC-3
Format/Info : Audio Coding 3
Codec ID : A_AC3
Duration : 22 min 5 s
Bit rate mode : Constant
Bit rate : 640 kb/s
Channel(s) : 6 channels
Channel positions : Front: L C R, Side: L R, LFE
Sampling rate : 48.0 kHz
Frame rate : 31.250 FPS (1536 SPF)
Bit depth : 16 bits
Compression mode : Lossy
Stream size : 101 MiB (4%)
Language : English
Service kind : Complete Main
Default : Yes
Forced : No

Menu
00:00:00.000 : en:(01)00:00:00:000
00:01:10.028 : en:(02)00:01:10:028
00:02:08.670 : en:(03)00:02:08:670
00:12:51.437 : en:(04)00:12:51:437
00:21:33.750 : en:(05)00:21:33:750


General
Format : Matroska
Format version : Version 4 / Version 2
File size : 2.57 GiB
Duration : 22 min 28 s
Overall bit rate mode : Variable
Overall bit rate : 16.4 Mb/s
Encoded date : UTC 2015-01-21 12:26:17
Writing application : mkvmerge v7.5.0 ('Glass Culture') 64bit built on Jan 4 2015 16:48:44
Writing library : libebml v1.3.1 + libmatroska v1.4.2

Video
ID : 1
Format : AVC
Format/Info : Advanced Video Codec
Format profile : High@L4
Format settings : CABAC / 2 Ref Frames
Format settings, CABAC : Yes
Format settings, RefFrames : 2 frames
Codec ID : V_MPEG4/ISO/AVC
Duration : 22 min 27 s
Bit rate mode : Variable
Bit rate : 13.9 Mb/s
Width : 1 920 pixels
Height : 1 080 pixels
Display aspect ratio : 16:9
Frame rate mode : Constant
Frame rate : 23.976 (24000/1001) FPS
Color space : YUV
Chroma subsampling : 4:2:0
Bit depth : 8 bits
Scan type : Progressive
Bits/(Pixel*Frame) : 0.280
Stream size : 2.18 GiB (85%)
Title : MPEG-4 AVC Video / 13900 kbps / 1080p / 23.976 fps / 16:9 / High Profile 4.0
Language : English
Default : Yes
Forced : No

Audio
ID : 2
Format : DTS
Format/Info : Digital Theater Systems
Format profile : MA / Core
Codec ID : A_DTS
Duration : 22 min 28 s
Bit rate mode : Variable / Constant
Bit rate : 2 472 kb/s / 1 509 kb/s
Channel(s) : 6 channels
Channel positions : Front: L C R, Side: L R, LFE
Sampling rate : 48.0 kHz
Frame rate : 93.750 FPS (512 SPF)
Bit depth : 16 bits
Compression mode : Lossless / Lossy
Stream size : 397 MiB (15%)
Title : DTS-HD Master Audio / 5.1 / 48 kHz / 2474 kbps / 16-bit
Language : English
Default : Yes
Forced : No

Text #1
ID : 3
Format : PGS
Muxing mode : zlib
Codec ID : S_HDMV/PGS
Codec ID/Info : Picture based subtitle format used on BDs/HD-DVDs
Duration : 21 min 58 s
Bit rate : 9 553 b/s
Count of elements : 358
Stream size : 1.50 MiB (0%)
Title : English
Language : English
Default : No
Forced : No

Text #2
ID : 4
Format : PGS
Muxing mode : zlib
Codec ID : S_HDMV/PGS
Codec ID/Info : Picture based subtitle format used on BDs/HD-DVDs
Duration : 21 min 57 s
Bit rate : 9 731 b/s
Count of elements : 340
Stream size : 1.53 MiB (0%)
Title : French
Language : French
Default : No
Forced : No

Text #3
ID : 5
Format : PGS
Muxing mode : zlib
Codec ID : S_HDMV/PGS
Codec ID/Info : Picture based subtitle format used on BDs/HD-DVDs
Duration : 21 min 57 s
Bit rate : 9 456 b/s
Count of elements : 350
Stream size : 1.48 MiB (0%)
Title : Spanish
Language : Spanish
Default : No
Forced : No

Menu #1
00:00:00.000 : en:Chapter 1
00:04:08.123 : en:Chapter 2
00:12:43.346 : en:Chapter 3
00:21:54.146 : en:Chapter 4

Menu #2
00:00:00.000 : en:00:00:00.000
00:04:08.123 : en:00:04:08.123
00:12:43.346 : en:00:12:43.346
00:21:54.146 : en:00:21:54.146


Screenshots

Justice League (2001-2004)

Justice League (2001-2004)

Justice League (2001-2004)


My publications | Rss Channel