2001 : L'Odyssée de l'espace (1968)

Posted By: Tavaz
720p (HD) / BDRip IMDb
2001 : L'Odyssée de l'espace (1968)

2001 : L'Odyssée de l'espace (1968)
BDRip | MKV | 1280x584 | French | H264 @ 4805 kbps | AC-3 @ 448 kbps | 2 h 28 min | 5.46 GiB
Genre: Adventure, Mystery, Science Fiction

Aux temps préhistoriques, une petite tribu d’hommes-singes intallée au milieu de rochers arides lutte difficilement pour la vie. Un matin, ils trouvent devant eux une mystérieuse dalle noire monolitique. L’un des singes touche la pierre et apprend alors à se servir d’un os de quadrupède pour tuer ses ennemis… Quatre millions d’années plus tard, en 2001, un savant de l’espace, le Dr Heywood Floyd, débarque sur la lune pour examiner une dalle noire semblable à celle des singes, qui était entérrée sous la surface de l’astre, selon les premières observations, l'objet émettrait un signal mystérieux…

2001.a.space.odyssey.1968.remastered.french.720p.bluray.x264-ulysse.sample.mkv (55.0 MB)
2001.a.space.odyssey.1968.remastered.french.720p.bluray.x264-ulysse.mkv (5.5 GB)



General
Complete name : ./2001.a.space.odyssey.1968.remastered.french.720p.bluray.x264-ulysse.mkv
Format : Matroska
Format version : Version 2
File size : 5.46 GiB
Duration : 2 h 28 min
Overall bit rate : 5 254 kb/s
Writing application : mkvmerge v6.6.0 ('The Edge Of The In Between') built on Dec 1 2013 17:55:00
Writing library : libebml v1.3.0 + libmatroska v1.4.1

Video
ID : 1
Format : AVC
Format/Info : Advanced Video Codec
Format profile : High@L4.1
Format settings : CABAC / 5 Ref Frames
Format settings, CABAC : Yes
Format settings, RefFrames : 5 frames
Codec ID : V_MPEG4/ISO/AVC
Duration : 2 h 28 min
Bit rate : 4 805 kb/s
Width : 1 280 pixels
Height : 584 pixels
Display aspect ratio : 2.2:1
Frame rate mode : Constant
Frame rate : 23.976 (24000/1001) FPS
Color space : YUV
Chroma subsampling : 4:2:0
Bit depth : 8 bits
Scan type : Progressive
Bits/(Pixel*Frame) : 0.268
Stream size : 4.89 GiB (89%)
Writing library : x264 core 157 r2935 545de2f
Encoding settings : cabac=1 / ref=5 / deblock=1:0:0 / analyse=0x3:0x113 / me=umh / subme=8 / psy=1 / psy_rd=1.00:0.00 / mixed_ref=1 / me_range=16 / chroma_me=1 / trellis=1 / 8x8dct=1 / cqm=0 / deadzone=21,11 / fast_pskip=1 / chroma_qp_offset=-2 / threads=18 / lookahead_threads=3 / sliced_threads=0 / nr=0 / decimate=1 / interlaced=0 / bluray_compat=0 / constrained_intra=0 / bframes=3 / b_pyramid=2 / b_adapt=2 / b_bias=0 / direct=3 / weightb=1 / open_gop=0 / weightp=2 / keyint=240 / keyint_min=24 / scenecut=40 / intra_refresh=0 / rc_lookahead=50 / rc=2pass / mbtree=1 / bitrate=4805 / ratetol=1.0 / qcomp=0.60 / qpmin=0 / qpmax=69 / qpstep=4 / cplxblur=20.0 / qblur=0.5 / ip_ratio=1.40 / aq=1:1.00
Language : English
Default : Yes
Forced : No

Audio
ID : 2
Format : AC-3
Format/Info : Audio Coding 3
Format settings, Endianness : Big
Codec ID : A_AC3
Duration : 2 h 28 min
Bit rate mode : Constant
Bit rate : 448 kb/s
Channel(s) : 6 channels
Channel positions : Front: L C R, Side: L R, LFE
Sampling rate : 48.0 kHz
Frame rate : 31.250 FPS (1536 SPF)
Bit depth : 16 bits
Compression mode : Lossy
Stream size : 477 MiB (9%)
Title : French AC3 448kbps
Language : French
Service kind : Complete Main
Default : Yes
Forced : No

Menu
00:00:00.000 : en:00:00:00.000
00:02:57.094 : en:00:02:57.094
00:04:39.029 : en:00:04:39.029
00:11:39.866 : en:00:11:39.866
00:16:57.892 : en:00:16:57.892
00:19:52.942 : en:00:19:52.942
00:25:28.944 : en:00:25:28.944
00:27:38.073 : en:00:27:38.073
00:29:29.434 : en:00:29:29.434
00:33:46.775 : en:00:33:46.775
00:41:08.549 : en:00:41:08.549
00:45:37.401 : en:00:45:37.401
00:50:56.470 : en:00:50:56.470
00:54:41.695 : en:00:54:41.695
00:58:33.635 : en:00:58:33.635
01:03:55.957 : en:01:03:55.957
01:06:05.211 : en:01:06:05.211
01:12:10.576 : en:01:12:10.576
01:18:51.769 : en:01:18:51.769
01:23:01.435 : en:01:23:01.435
01:27:02.134 : en:01:27:02.134
01:27:49.181 : en:01:27:49.181
01:30:07.652 : en:01:30:07.652
01:32:50.774 : en:01:32:50.774
01:38:35.493 : en:01:38:35.493
01:40:46.999 : en:01:40:46.999
01:45:35.454 : en:01:45:35.454
01:49:41.450 : en:01:49:41.450
01:55:19.579 : en:01:55:19.579
01:57:06.061 : en:01:57:06.061
02:01:28.114 : en:02:01:28.114
02:11:33.302 : en:02:11:33.302
02:17:57.519 : en:02:17:57.519
02:20:33.342 : en:02:20:33.342





2001 : L'Odyssée de l'espace (1968)


2001 : L'Odyssée de l'espace (1968)


2001 : L'Odyssée de l'espace (1968)


2001 : L'Odyssée de l'espace (1968)