Seikai no Senki (2000) [7 DVD]

Posted By: Lebedev30
SD / DVD IMDb
Seikai no Senki (2000) [7 DVD]

Seikai no Senki (2000) [7 DVD]
DVD5 | ISO | NTSC 4:3 | 21.5 Gb
Audio: Japanese AC-3 48000 @ 448 Kbps
Subtitles: none
Genre: action, air force, genetic modification, military, science fiction, space travel


Description:
* Based on the sci-fi novel series by Morioka Hiroyuki.

Three years after their adventure, Lafiel becomes captain on the brand new assault ship Basroil and Jinto finishes his training to become a supply officer and joins Lafiel's crew. They set out to join a large fleet with the mission to defend the strategically important Aptic Gate from a force 15 times larger than their own. And to make matters worse, their new fleet commander is from the Bebaus family, a family notorious for their "Spectacular Insanity".

Contents:
TV Series, 13 episodes
Year: 14.04.2000 till 14.07.2000





Special features -> See the menu's screenshot


Seikai no Senki (2000) [7 DVD]


Seikai no Senki 01 DVD
DVD5 | ISO | NTSC 4:3 | 1.8 Gb
Audio: Japanese AC-3 48000 @ 448 Kbps



Video
ID : 224 (0xE0)
Format : MPEG Video
Format version : Version 2
Format profile : Main@Main
Format settings : CustomMatrix / BVOP
Format settings, BVOP : Yes
Format settings, Matrix : Custom
Format settings, GOP : M=3, N=15
Format settings, picture structure : Frame
Duration : 15 min 3 s
Bit rate mode : Variable
Bit rate : 8 861 kb/s
Maximum bit rate : 9 800 kb/s
Width : 720 pixels
Height : 480 pixels
Display aspect ratio : 4:3
Frame rate : 29.970 (30000/1001) FPS
Standard : NTSC
Color space : YUV
Chroma subsampling : 4:2:0
Bit depth : 8 bits
Scan type : Interlaced
Scan order : Top Field First
Compression mode : Lossy
Bits/(Pixel*Frame) : 0.856
Stream size : 955 MiB (93%)

Audio
ID : 189 (0xBD)-128 (0x80)
Format : AC-3
Format/Info : Audio Coding 3
Muxing mode : DVD-Video
Duration : 15 min 3 s
Bit rate mode : Constant
Bit rate : 448 kb/s
Channel(s) : 2 channels
Channel positions : Front: L R
Sampling rate : 48.0 kHz
Frame rate : 31.250 FPS (1536 SPF)
Bit depth : 16 bits
Compression mode : Lossy
Stream size : 48.3 MiB (5%)
Service kind : Complete Main


Seikai no Senki (2000) [7 DVD]


Seikai no Senki 02 DVD
DVD5 | ISO | NTSC 4:3 | 3.3 Gb
Audio: Japanese AC-3 48000 @ 448 Kbps



Video
ID : 224 (0xE0)
Format : MPEG Video
Format version : Version 2
Format profile : Main@Main
Format settings : CustomMatrix / BVOP
Format settings, BVOP : Yes
Format settings, Matrix : Custom
Format settings, GOP : M=3, N=15
Format settings, picture structure : Frame
Duration : 15 min 2 s
Bit rate mode : Variable
Bit rate : 8 876 kb/s
Maximum bit rate : 9 800 kb/s
Width : 720 pixels
Height : 480 pixels
Display aspect ratio : 4:3
Frame rate : 29.970 (30000/1001) FPS
Standard : NTSC
Color space : YUV
Chroma subsampling : 4:2:0
Bit depth : 8 bits
Scan type : Interlaced
Scan order : Top Field First
Compression mode : Lossy
Bits/(Pixel*Frame) : 0.857
Stream size : 955 MiB (93%)

Audio
ID : 189 (0xBD)-128 (0x80)
Format : AC-3
Format/Info : Audio Coding 3
Muxing mode : DVD-Video
Duration : 15 min 2 s
Bit rate mode : Constant
Bit rate : 448 kb/s
Channel(s) : 2 channels
Channel positions : Front: L R
Sampling rate : 48.0 kHz
Frame rate : 31.250 FPS (1536 SPF)
Bit depth : 16 bits
Compression mode : Lossy
Stream size : 48.2 MiB (5%)
Service kind : Complete Main


Seikai no Senki (2000) [7 DVD]


Seikai no Senki 03 DVD
DVD5 | ISO | NTSC 4:3 | 3.2 Gb
Audio: Japanese AC-3 48000 @ 448 Kbps



Video
ID : 224 (0xE0)
Format : MPEG Video
Format version : Version 2
Format profile : Main@Main
Format settings : CustomMatrix / BVOP
Format settings, BVOP : Yes
Format settings, Matrix : Custom
Format settings, GOP : M=3, N=15
Format settings, picture structure : Frame
Duration : 15 min 2 s
Bit rate mode : Variable
Bit rate : 8 879 kb/s
Maximum bit rate : 9 800 kb/s
Width : 720 pixels
Height : 480 pixels
Display aspect ratio : 4:3
Frame rate : 29.970 (30000/1001) FPS
Standard : NTSC
Color space : YUV
Chroma subsampling : 4:2:0
Bit depth : 8 bits
Scan type : Interlaced
Scan order : Top Field First
Compression mode : Lossy
Bits/(Pixel*Frame) : 0.857
Stream size : 955 MiB (93%)

Audio
ID : 189 (0xBD)-128 (0x80)
Format : AC-3
Format/Info : Audio Coding 3
Muxing mode : DVD-Video
Duration : 15 min 1 s
Bit rate mode : Constant
Bit rate : 448 kb/s
Channel(s) : 2 channels
Channel positions : Front: L R
Sampling rate : 48.0 kHz
Frame rate : 31.250 FPS (1536 SPF)
Bit depth : 16 bits
Compression mode : Lossy
Stream size : 48.2 MiB (5%)
Service kind : Complete Main


Seikai no Senki (2000) [7 DVD]


Seikai no Senki 04 DVD
DVD5 | ISO | NTSC 4:3 | 3.2 Gb
Audio: Japanese AC-3 48000 @ 448 Kbps



Video
ID : 224 (0xE0)
Format : MPEG Video
Format version : Version 2
Format profile : Main@Main
Format settings : CustomMatrix / BVOP
Format settings, BVOP : Yes
Format settings, Matrix : Custom
Format settings, GOP : M=3, N=15
Format settings, picture structure : Frame
Duration : 15 min 5 s
Bit rate mode : Variable
Bit rate : 8 844 kb/s
Maximum bit rate : 9 800 kb/s
Width : 720 pixels
Height : 480 pixels
Display aspect ratio : 4:3
Frame rate : 29.970 (30000/1001) FPS
Standard : NTSC
Color space : YUV
Chroma subsampling : 4:2:0
Bit depth : 8 bits
Scan type : Interlaced
Scan order : Top Field First
Compression mode : Lossy
Bits/(Pixel*Frame) : 0.854
Stream size : 955 MiB (93%)

Audio
ID : 189 (0xBD)-128 (0x80)
Format : AC-3
Format/Info : Audio Coding 3
Muxing mode : DVD-Video
Duration : 15 min 5 s
Bit rate mode : Constant
Bit rate : 448 kb/s
Channel(s) : 2 channels
Channel positions : Front: L R
Sampling rate : 48.0 kHz
Frame rate : 31.250 FPS (1536 SPF)
Bit depth : 16 bits
Compression mode : Lossy
Stream size : 48.4 MiB (5%)
Service kind : Complete Main


Seikai no Senki (2000) [7 DVD]


Seikai no Senki 05 DVD
DVD5 | ISO | NTSC 4:3 | 3.3 Gb
Audio: Japanese AC-3 48000 @ 448 Kbps



Video
ID : 224 (0xE0)
Format : MPEG Video
Format version : Version 2
Format profile : Main@Main
Format settings : CustomMatrix / BVOP
Format settings, BVOP : Yes
Format settings, Matrix : Custom
Format settings, GOP : M=3, N=15
Format settings, picture structure : Frame
Duration : 15 min 20 s
Bit rate mode : Variable
Bit rate : 8 695 kb/s
Maximum bit rate : 9 800 kb/s
Width : 720 pixels
Height : 480 pixels
Display aspect ratio : 4:3
Frame rate : 29.970 (30000/1001) FPS
Standard : NTSC
Color space : YUV
Chroma subsampling : 4:2:0
Bit depth : 8 bits
Scan type : Interlaced
Scan order : Top Field First
Compression mode : Lossy
Bits/(Pixel*Frame) : 0.839
Stream size : 954 MiB (93%)

Audio
ID : 189 (0xBD)-128 (0x80)
Format : AC-3
Format/Info : Audio Coding 3
Muxing mode : DVD-Video
Duration : 15 min 20 s
Bit rate mode : Constant
Bit rate : 448 kb/s
Channel(s) : 2 channels
Channel positions : Front: L R
Sampling rate : 48.0 kHz
Frame rate : 31.250 FPS (1536 SPF)
Bit depth : 16 bits
Compression mode : Lossy
Stream size : 49.2 MiB (5%)
Service kind : Complete Main


Seikai no Senki (2000) [7 DVD]


Seikai no Senki 06 DVD
DVD5 | ISO | NTSC 4:3 | 3.2 Gb
Audio: Japanese AC-3 48000 @ 448 Kbps



Video
ID : 224 (0xE0)
Format : MPEG Video
Format version : Version 2
Format profile : Main@Main
Format settings : CustomMatrix / BVOP
Format settings, BVOP : Yes
Format settings, Matrix : Custom
Format settings, GOP : M=3, N=15
Format settings, picture structure : Frame
Duration : 15 min 8 s
Bit rate mode : Variable
Bit rate : 8 823 kb/s
Maximum bit rate : 9 800 kb/s
Width : 720 pixels
Height : 480 pixels
Display aspect ratio : 4:3
Frame rate : 29.970 (30000/1001) FPS
Standard : NTSC
Color space : YUV
Chroma subsampling : 4:2:0
Bit depth : 8 bits
Scan type : Interlaced
Scan order : Top Field First
Compression mode : Lossy
Bits/(Pixel*Frame) : 0.852
Stream size : 955 MiB (93%)

Audio
ID : 189 (0xBD)-128 (0x80)
Format : AC-3
Format/Info : Audio Coding 3
Muxing mode : DVD-Video
Duration : 15 min 7 s
Bit rate mode : Constant
Bit rate : 448 kb/s
Channel(s) : 2 channels
Channel positions : Front: L R
Sampling rate : 48.0 kHz
Frame rate : 31.250 FPS (1536 SPF)
Bit depth : 16 bits
Compression mode : Lossy
Stream size : 48.5 MiB (5%)
Service kind : Complete Main


Seikai no Senki (2000) [7 DVD]


Seikai no Senki 07 DVD
DVD5 | ISO | NTSC 4:3 | 3.1 Gb
Audio: Japanese AC-3 48000 @ 448 Kbps



Video
ID : 224 (0xE0)
Format : MPEG Video
Format version : Version 2
Format profile : Main@Main
Format settings : CustomMatrix / BVOP
Format settings, BVOP : Yes
Format settings, Matrix : Custom
Format settings, GOP : M=3, N=15
Format settings, picture structure : Frame
Duration : 15 min 15 s
Bit rate mode : Variable
Bit rate : 8 743 kb/s
Maximum bit rate : 9 800 kb/s
Width : 720 pixels
Height : 480 pixels
Display aspect ratio : 4:3
Frame rate : 29.970 (30000/1001) FPS
Standard : NTSC
Color space : YUV
Chroma subsampling : 4:2:0
Bit depth : 8 bits
Scan type : Interlaced
Scan order : Top Field First
Compression mode : Lossy
Bits/(Pixel*Frame) : 0.844
Stream size : 954 MiB (93%)

Audio
ID : 189 (0xBD)-128 (0x80)
Format : AC-3
Format/Info : Audio Coding 3
Muxing mode : DVD-Video
Duration : 15 min 15 s
Bit rate mode : Constant
Bit rate : 448 kb/s
Channel(s) : 2 channels
Channel positions : Front: L R
Sampling rate : 48.0 kHz
Frame rate : 31.250 FPS (1536 SPF)
Bit depth : 16 bits
Compression mode : Lossy
Stream size : 48.9 MiB (5%)
Service kind : Complete Main


Screenshots

Seikai no Senki (2000) [7 DVD]

Seikai no Senki (2000) [7 DVD]

Seikai no Senki (2000) [7 DVD]