Seikai no Senki II (2001) [5 DVD]

Posted By: Lebedev30
SD / DVD IMDb
Seikai no Senki II (2001) [5 DVD]

Seikai no Senki II (2001) [5 DVD]
DVD5 | ISO | NTSC 4:3 | 15.8 Gb
Audio: Japanese AC-3 48000 @ 448 Kbps
Subtitles: none
Genre: action, genetic modification, military, romance, science fiction, space travel


Description:
* Based on the Seikai no Senki sci-fi novel series by Morioka Hiroyuki.

The Abh star force won a decisive battle at Aptic Gate, completely breaking the counter offensive of the United Mankind fleet. Now a new operation has begun: Operation Hunter — seek and completely annihilate all of the remaining scattered fleet.

Basroil, part of 4th fleet, was sent to the Lobnas system on an escort mission. Lafiel and Jinto were assigned to become acting governor/vice governor of the system and negotiate with the planet-side government to establish empire rule. But little did they know that that the Lobnas system is a prison planet of United Mankind and millions of prisoners are just about to start a rebellion to overwhelm the security forces detached there.
Contents:
TV Series, 10 episodes
Year: 11.07.2001 till 26.09.2001




Special features -> See the menu's screenshot


Seikai no Senki II (2001) [5 DVD]


Seikai no Senki II 01 DVD
DVD5 | ISO | NTSC 4:3 | 3.1 Gb
Audio: Japanese AC-3 48000 @ 448 Kbps



Video
ID : 224 (0xE0)
Format : MPEG Video
Format version : Version 2
Format profile : Main@Main
Format settings : CustomMatrix / BVOP
Format settings, BVOP : Yes
Format settings, Matrix : Custom
Format settings, GOP : M=3, N=15
Format settings, picture structure : Frame
Duration : 15 min 41 s
Bit rate mode : Variable
Bit rate : 8 494 kb/s
Maximum bit rate : 9 800 kb/s
Width : 720 pixels
Height : 480 pixels
Display aspect ratio : 16:9
Frame rate : 29.970 (30000/1001) FPS
Standard : NTSC
Color space : YUV
Chroma subsampling : 4:2:0
Bit depth : 8 bits
Scan type : Interlaced
Scan order : Top Field First
Compression mode : Lossy
Bits/(Pixel*Frame) : 0.820
Stream size : 953 MiB (93%)

Audio
ID : 189 (0xBD)-128 (0x80)
Format : AC-3
Format/Info : Audio Coding 3
Muxing mode : DVD-Video
Duration : 15 min 41 s
Bit rate mode : Constant
Bit rate : 448 kb/s
Channel(s) : 2 channels
Channel positions : Front: L R
Sampling rate : 48.0 kHz
Frame rate : 31.250 FPS (1536 SPF)
Bit depth : 16 bits
Compression mode : Lossy
Stream size : 50.3 MiB (5%)
Service kind : Complete Main


Seikai no Senki II (2001) [5 DVD]


Seikai no Senki II 02 DVD
DVD5 | ISO | NTSC 4:3 | 3.1 Gb
Audio: Japanese AC-3 48000 @ 448 Kbps



Video
ID : 224 (0xE0)
Format : MPEG Video
Format version : Version 2
Format profile : Main@Main
Format settings : CustomMatrix / BVOP
Format settings, BVOP : Yes
Format settings, Matrix : Custom
Format settings, GOP : M=3, N=15
Format settings, picture structure : Frame
Duration : 15 min 29 s
Bit rate mode : Variable
Bit rate : 8 608 kb/s
Maximum bit rate : 9 800 kb/s
Width : 720 pixels
Height : 480 pixels
Display aspect ratio : 16:9
Frame rate : 29.970 (30000/1001) FPS
Standard : NTSC
Color space : YUV
Chroma subsampling : 4:2:0
Bit depth : 8 bits
Scan type : Interlaced
Scan order : Top Field First
Compression mode : Lossy
Bits/(Pixel*Frame) : 0.831
Stream size : 954 MiB (93%)

Audio
ID : 189 (0xBD)-128 (0x80)
Format : AC-3
Format/Info : Audio Coding 3
Muxing mode : DVD-Video
Duration : 15 min 29 s
Bit rate mode : Constant
Bit rate : 448 kb/s
Channel(s) : 2 channels
Channel positions : Front: L R
Sampling rate : 48.0 kHz
Frame rate : 31.250 FPS (1536 SPF)
Bit depth : 16 bits
Compression mode : Lossy
Stream size : 49.6 MiB (5%)
Service kind : Complete Main


Seikai no Senki II (2001) [5 DVD]


Seikai no Senki II 03 DVD
DVD5 | ISO | NTSC 4:3 | 3.1 Gb
Audio: Japanese AC-3 48000 @ 448 Kbps



Video
ID : 224 (0xE0)
Format : MPEG Video
Format version : Version 2
Format profile : Main@Main
Format settings : CustomMatrix / BVOP
Format settings, BVOP : Yes
Format settings, Matrix : Custom
Format settings, GOP : M=3, N=15
Format settings, picture structure : Frame
Duration : 15 min 34 s
Bit rate mode : Variable
Bit rate : 8 563 kb/s
Maximum bit rate : 9 800 kb/s
Width : 720 pixels
Height : 480 pixels
Display aspect ratio : 16:9
Frame rate : 29.970 (30000/1001) FPS
Standard : NTSC
Color space : YUV
Chroma subsampling : 4:2:0
Bit depth : 8 bits
Scan type : Interlaced
Scan order : Top Field First
Compression mode : Lossy
Bits/(Pixel*Frame) : 0.827
Stream size : 954 MiB (93%)

Audio
ID : 189 (0xBD)-128 (0x80)
Format : AC-3
Format/Info : Audio Coding 3
Muxing mode : DVD-Video
Duration : 15 min 33 s
Bit rate mode : Constant
Bit rate : 448 kb/s
Channel(s) : 2 channels
Channel positions : Front: L R
Sampling rate : 48.0 kHz
Frame rate : 31.250 FPS (1536 SPF)
Bit depth : 16 bits
Compression mode : Lossy
Stream size : 49.9 MiB (5%)
Service kind : Complete Main


Seikai no Senki II (2001) [5 DVD]


Seikai no Senki II 04 DVD
DVD5 | ISO | NTSC 4:3 | 3.1 Gb
Audio: Japanese AC-3 48000 @ 448 Kbps



Video
ID : 224 (0xE0)
Format : MPEG Video
Format version : Version 2
Format profile : Main@Main
Format settings : CustomMatrix / BVOP
Format settings, BVOP : Yes
Format settings, Matrix : Custom
Format settings, GOP : M=3, N=15
Format settings, picture structure : Frame
Duration : 15 min 23 s
Bit rate mode : Variable
Bit rate : 8 669 kb/s
Maximum bit rate : 9 800 kb/s
Width : 720 pixels
Height : 480 pixels
Display aspect ratio : 16:9
Frame rate : 29.970 (30000/1001) FPS
Standard : NTSC
Color space : YUV
Chroma subsampling : 4:2:0
Bit depth : 8 bits
Scan type : Interlaced
Scan order : Top Field First
Compression mode : Lossy
Bits/(Pixel*Frame) : 0.837
Stream size : 954 MiB (93%)

Audio
ID : 189 (0xBD)-128 (0x80)
Format : AC-3
Format/Info : Audio Coding 3
Muxing mode : DVD-Video
Duration : 15 min 23 s
Bit rate mode : Constant
Bit rate : 448 kb/s
Channel(s) : 2 channels
Channel positions : Front: L R
Sampling rate : 48.0 kHz
Frame rate : 31.250 FPS (1536 SPF)
Bit depth : 16 bits
Compression mode : Lossy
Stream size : 49.3 MiB (5%)
Service kind : Complete Main


Seikai no Senki II (2001) [5 DVD]


Seikai no Senki II 05 DVD
DVD5 | ISO | NTSC 4:3 | 3.1 Gb
Audio: Japanese AC-3 48000 @ 448 Kbps



Video
ID : 224 (0xE0)
Format : MPEG Video
Format version : Version 2
Format profile : Main@Main
Format settings : CustomMatrix / BVOP
Format settings, BVOP : Yes
Format settings, Matrix : Custom
Format settings, GOP : M=3, N=15
Format settings, picture structure : Frame
Duration : 16 min 0 s
Bit rate mode : Variable
Bit rate : 8 315 kb/s
Maximum bit rate : 9 800 kb/s
Width : 720 pixels
Height : 480 pixels
Display aspect ratio : 16:9
Frame rate : 29.970 (30000/1001) FPS
Standard : NTSC
Color space : YUV
Chroma subsampling : 4:2:0
Bit depth : 8 bits
Scan type : Interlaced
Scan order : Top Field First
Compression mode : Lossy
Bits/(Pixel*Frame) : 0.803
Stream size : 952 MiB (93%)

Audio
ID : 189 (0xBD)-128 (0x80)
Format : AC-3
Format/Info : Audio Coding 3
Muxing mode : DVD-Video
Duration : 16 min 0 s
Bit rate mode : Constant
Bit rate : 448 kb/s
Channel(s) : 2 channels
Channel positions : Front: L R
Sampling rate : 48.0 kHz
Frame rate : 31.250 FPS (1536 SPF)
Bit depth : 16 bits
Compression mode : Lossy
Stream size : 51.3 MiB (5%)
Service kind : Complete Main


Screenshots

Seikai no Senki II (2001) [5 DVD]

Seikai no Senki II (2001) [5 DVD]

Seikai no Senki II (2001) [5 DVD]